<?xml version="1.0" standalone="no"?>
<!DOCTYPE svg PUBLIC "-//W3C//DTD SVG 1.1//EN" "http://www.w3.org/Graphics/SVG/1.1/DTD/svg11.dtd" >
<svg xmlns="http://www.w3.org/2000/svg">
<metadata></metadata>
<defs>
<font id="museo900" horiz-adv-x="1290" >
<font-face units-per-em="2048" ascent="1536" descent="-512" />
<missing-glyph horiz-adv-x="532" />
<glyph unicode="&#xfb01;" horiz-adv-x="1441" d="M33 778v277h129v24q0 99 35 173.5t85.5 115t120 65.5t126 32.5t116.5 7.5q28 0 54.5 -1.5t39.5 -3.5l13 -2v-299q-29 4 -68 4q-168 0 -168 -108v-8h608q78 0 114 -36t36 -114v-563q0 -45 45 -45h78v-297h-328q-78 0 -113.5 36t-35.5 114v583q0 45 -46 45h-358v-778h-354 v778h-129zM946 1178v286h297v-286h-297z" />
<glyph unicode="&#xfb02;" horiz-adv-x="1423" d="M33 778v277h129v24q0 71 18 129.5t47 97.5t71 68.5t84 46.5t91.5 27t88.5 13t81 3h467q78 0 114 -35.5t36 -113.5v-973q0 -45 45 -45h77v-297h-327q-78 0 -114 36t-36 114v972q0 45 -45 45h-166q-178 0 -178 -98v-14h195v-277h-195v-778h-354v778h-129z" />
<glyph unicode="&#xfb03;" horiz-adv-x="2193" d="M33 778v277h129v24q0 99 35 173.5t85.5 115t120 65.5t126 32.5t116.5 7.5q28 0 54.5 -1.5t39.5 -3.5l13 -2v-299q-29 4 -66 4q-170 0 -170 -110v-6h397v24q0 99 35 173.5t85.5 115t120.5 65.5t126.5 32.5t116.5 7.5q28 0 54.5 -1.5t38.5 -3.5l13 -2v-299q-28 4 -65 4 q-170 0 -170 -110v-6h608q78 0 113.5 -36t35.5 -114v-563q0 -45 46 -45h77v-297h-327q-78 0 -114 36t-36 114v583q0 45 -45 45h-358v-778h-355v778h-397v-778h-354v778h-129zM1698 1178v286h297v-286h-297z" />
<glyph unicode="&#xfb04;" horiz-adv-x="2174" d="M33 778v277h129v24q0 99 35 173.5t85.5 115t120 65.5t126 32.5t116.5 7.5q28 0 54.5 -1.5t39.5 -3.5l13 -2v-299q-27 4 -60 4q-31 0 -58 -4.5t-55.5 -15t-45.5 -34t-17 -56.5v-6h397v12q0 95 34.5 169.5t90.5 121t134.5 77t160.5 42.5t174 12q89 0 172 -12.5t160.5 -39.5 t124.5 -78t47 -120v-897q0 -45 45 -45h78v-297h-328q-78 0 -113.5 36t-35.5 114v913q0 73 -39 94t-127 21q-56 0 -104.5 -11t-83.5 -38t-35 -66v-8h194v-277h-194v-778h-355v778h-397v-778h-354v778h-129z" />
<glyph horiz-adv-x="2048" />
<glyph horiz-adv-x="2048" />
<glyph unicode="&#xd;" horiz-adv-x="2048" />
<glyph unicode=" "  horiz-adv-x="532" />
<glyph unicode="&#x09;" horiz-adv-x="532" />
<glyph unicode="&#xa0;" horiz-adv-x="532" />
<glyph unicode="!" horiz-adv-x="737" d="M184 1464h369l-33 -1011h-303zM207 0v307h323v-307h-323z" />
<glyph unicode="&#x22;" horiz-adv-x="845" d="M102 1004v491h250v-491h-250zM494 1004v491h249v-491h-249z" />
<glyph unicode="#" horiz-adv-x="1411" d="M51 369l41 245h207l35 195h-203l41 246h203l71 409h275l-72 -409h221l72 409h275l-72 -409h215l-41 -246h-215l-35 -195h211l-41 -245h-211l-63 -369h-275l64 369h-222l-63 -369h-274l63 369h-207zM573 614h222l34 195h-221z" />
<glyph unicode="$" horiz-adv-x="1191" d="M66 285l249 213q5 -8 14 -21.5t40 -47.5t65 -59.5t86 -47t105 -21.5q63 0 105 26t42 83q0 30 -28.5 58t-75 49.5t-106 49t-122 56t-122 71t-106 92t-75 122.5t-28.5 159q0 163 113 272t288 140v190h233v-190q67 -11 126 -35t109 -61t79.5 -91.5t29.5 -120.5v-159h-327v63 q0 38 -39.5 62t-93.5 24q-60 0 -105 -24t-45 -66q0 -34 28.5 -63.5t75 -50t106.5 -46t122 -51t122 -66t106.5 -89t75 -123t28.5 -164.5q0 -159 -109.5 -278.5t-288.5 -151.5v-191h-233v187q-63 10 -121.5 32t-102 49t-81 57.5t-62.5 59.5t-43 52t-26 37z" />
<glyph unicode="%" horiz-adv-x="1820" d="M102 1135q0 146 108.5 250t262.5 104q153 0 262 -104.5t109 -249.5q0 -147 -108.5 -250t-262.5 -103q-155 0 -263 102.5t-108 250.5zM184 0l1131 1464h311l-1130 -1464h-312zM360 1137q0 -45 33.5 -77t79.5 -32t79.5 32t33.5 77q0 43 -33.5 74.5t-79.5 31.5t-79.5 -31.5 t-33.5 -74.5zM977 328q0 146 108.5 250t262.5 104q153 0 261.5 -104.5t108.5 -249.5q0 -148 -108 -250.5t-262 -102.5q-155 0 -263 102.5t-108 250.5zM1235 330q0 -45 33.5 -77t79.5 -32t79 32t33 77q0 43 -33 74.5t-79 31.5t-79.5 -31.5t-33.5 -74.5z" />
<glyph unicode="&#x26;" horiz-adv-x="1378" d="M82 444q0 65 24.5 130.5t77 121t121.5 76.5v4q-7 3 -17.5 10t-38.5 33.5t-49.5 59.5t-39 90.5t-17.5 124.5q0 180 132 287.5t325 107.5q64 0 120.5 -6.5t81.5 -13.5l25 -7l-82 -278q-38 10 -81 10q-74 0 -116 -46t-42 -108q0 -58 39 -99.5t110 -41.5h158v156h352v-156 h162v-307h-162v-141q0 -99 -36 -185t-102.5 -151t-170 -102.5t-229.5 -37.5q-240 0 -392.5 135t-152.5 334zM449 446q0 -58 49 -101.5t129 -43.5q89 0 137.5 47.5t48.5 122.5v121h-160q-89 0 -146.5 -34.5t-57.5 -111.5z" />
<glyph unicode="'" horiz-adv-x="460" d="M102 1004v491h256v-491h-256z" />
<glyph unicode="(" horiz-adv-x="788" d="M158 657q0 243 65 471.5t191 407.5h293q-236 -392 -236 -854q0 -466 236 -877h-293q-127 170 -191.5 391t-64.5 461z" />
<glyph unicode=")" horiz-adv-x="788" d="M82 -195q235 410 235 877q0 463 -235 854h293q126 -179 191 -407.5t65 -471.5q0 -240 -64.5 -461t-191.5 -391h-293z" />
<glyph unicode="*" horiz-adv-x="997" d="M61 1034l95 293l209 -92l-23 229h311l-24 -229l211 94l96 -293l-227 -47v-4l155 -170l-250 -182l-114 198h-4l-113 -198l-250 180l154 170v4z" />
<glyph unicode="+" d="M86 455v266h420v457h278v-457h420v-266h-420v-455h-278v455h-420z" />
<glyph unicode="," horiz-adv-x="622" d="M43 -227l154 567h327l-231 -567h-250z" />
<glyph unicode="-" horiz-adv-x="880" d="M119 434v307h643v-307h-643z" />
<glyph unicode="." horiz-adv-x="622" d="M150 0v336h323v-336h-323z" />
<glyph unicode="/" horiz-adv-x="819" d="M-10 -86l524 1622h295l-524 -1622h-295z" />
<glyph unicode="0" horiz-adv-x="1269" d="M84 735q0 131 17 240.5t57.5 206t102.5 163.5t157 105.5t217 38.5t217 -38.5t157 -105.5t102.5 -163.5t57.5 -206t17 -240.5t-17 -241t-57.5 -207.5t-102.5 -165.5t-157 -107t-217 -39t-217 39t-157 107t-102.5 165.5t-57.5 207.5t-17 241zM453 735q0 -432 182 -432 t182 432q0 426 -182 426t-182 -426z" />
<glyph unicode="1" horiz-adv-x="1185" d="M84 1094l395 370h326v-1157h309v-307h-983v307h307v611l2 112h-4q-18 -41 -57 -78l-88 -80z" />
<glyph unicode="2" horiz-adv-x="1216" d="M53 231q0 106 37 192.5t96 143.5t130.5 105t143 86.5t130.5 77t96 88.5t37 110q0 59 -40.5 91t-104.5 32t-101 -26.5t-37 -57.5v-59h-327v172q0 73 44 132.5t114.5 95.5t153.5 55.5t167 19.5q93 0 180 -28t159.5 -81.5t116.5 -141.5t44 -198q0 -77 -22.5 -145t-60.5 -119 t-87 -95.5t-103.5 -78t-109 -63t-103.5 -54.5t-87 -48t-60.5 -48t-22.5 -51q0 -18 13.5 -24.5t48.5 -6.5h284q45 0 45 45v80h328v-282q0 -78 -35.5 -114t-113.5 -36h-787q-57 0 -90 12t-50 43.5t-21.5 69t-4.5 106.5z" />
<glyph unicode="3" horiz-adv-x="1183" d="M53 182l172 277l16 -16t45 -35t72.5 -44t94.5 -35t114 -16q88 0 138.5 41t50.5 105q0 60 -59 100.5t-156 40.5h-105l-71 174l161 252q26 42 55 76t45 48l15 13v4q-47 -10 -139 -10h-31q-45 0 -45 -45v-80h-328v283q0 81 27.5 115t103.5 34h840v-223l-264 -354 q152 -34 236.5 -152t84.5 -270q0 -92 -35 -178t-101 -156.5t-174 -113t-243 -42.5q-95 0 -183.5 21.5t-147 52t-103.5 60.5t-65 51z" />
<glyph unicode="4" horiz-adv-x="1249" d="M41 344v227l524 893h445v-813h217v-307h-217v-344h-367v344h-602zM414 645q59 6 133 6h102v256q0 36 3.5 79.5t6.5 69.5l3 25h-5q-36 -90 -71 -151l-103 -182q-16 -27 -33 -52t-26 -36l-10 -11v-4z" />
<glyph unicode="5" horiz-adv-x="1261" d="M86 172l168 283q6 -6 16.5 -15.5t45.5 -34t72.5 -43t94.5 -34t113 -15.5q91 0 143 50t52 120q0 63 -40 105t-98 58t-131 16q-69 0 -136.5 -14t-100.5 -28l-33 -14l-111 62l45 647q6 80 39.5 114.5t110.5 34.5h586q78 0 113.5 -35.5t35.5 -113.5v-283h-328v80q0 45 -45 45 h-143q-42 0 -45 -45l-6 -100l-6 -58h4q51 9 104 9q134 0 241 -38t175 -104t103.5 -154t35.5 -190q0 -97 -36 -185.5t-103.5 -160.5t-178 -115t-247.5 -43q-91 0 -177 20.5t-143.5 49.5t-102.5 58.5t-66 50.5z" />
<glyph unicode="6" horiz-adv-x="1200" d="M53 666q0 122 28.5 239.5t87 223.5t140.5 186t196.5 127t246.5 47q91 0 172 -16t116 -32l35 -16l-96 -307q-97 43 -201 43q-119 0 -197 -66t-114 -175h4q27 19 86.5 35t110.5 16q111 0 203 -43t151.5 -114t92 -160.5t32.5 -184.5q0 -75 -21 -146.5t-64 -134.5 t-102 -110.5t-140 -75t-173 -27.5q-90 0 -175 26t-161.5 82t-133.5 136t-90.5 195t-33.5 252zM426 594q0 -124 69.5 -207.5t151.5 -83.5q65 0 106.5 48.5t41.5 115.5q0 88 -56 151.5t-166 63.5q-147 0 -147 -88z" />
<glyph unicode="7" horiz-adv-x="1144" d="M33 1032v283q0 81 27.5 115t103.5 34h954v-250l-676 -1214h-397l580 1026q24 44 47.5 77t35.5 45l11 11v4q-20 -6 -94 -6h-219q-46 0 -46 -45v-80h-327z" />
<glyph unicode="8" horiz-adv-x="1214" d="M57 432q0 58 20 115t48.5 97t57.5 71.5t49 46.5l20 16v4q-5 4 -14 12t-31.5 35t-40 57.5t-31.5 79.5t-14 101q0 82 32.5 157t92.5 134.5t154.5 95t209.5 35.5q217 0 353.5 -120t136.5 -300q0 -53 -13.5 -104.5t-33 -87t-38.5 -63t-33 -40.5l-13 -14v-4q88 -61 133 -149 t45 -185q0 -85 -37.5 -164.5t-105 -142.5t-173 -101.5t-231.5 -38.5q-236 0 -389.5 132t-153.5 325zM422 457q0 -68 48.5 -111t129.5 -43q79 0 128.5 38.5t49.5 98.5q0 46 -39.5 79.5t-117.5 68.5q-86 41 -103 41q-33 0 -64.5 -54.5t-31.5 -117.5zM471 1059q0 -75 133 -135 q50 -25 72 -25q30 0 53 43.5t23 99.5q0 55 -39 87t-103 32q-63 0 -101 -30t-38 -72z" />
<glyph unicode="9" horiz-adv-x="1200" d="M51 995q0 75 21 146.5t64 134.5t102 110.5t140 75t173 27.5q90 0 175 -26t161.5 -81.5t133.5 -135.5t90.5 -195t33.5 -252q0 -122 -28.5 -240t-87 -223.5t-140.5 -186t-196.5 -127.5t-246.5 -47q-91 0 -172 16t-116 32l-35 16l96 307q97 -43 201 -43q119 0 197 66.5 t114 175.5h-4q-25 -19 -85.5 -35t-111.5 -16q-111 0 -203 42.5t-151.5 113.5t-92 160.5t-32.5 184.5zM403 997q0 -88 56 -151.5t166 -63.5q147 0 147 88q0 124 -69.5 207.5t-151.5 83.5q-65 0 -106.5 -48.5t-41.5 -115.5z" />
<glyph unicode=":" horiz-adv-x="663" d="M170 0v336h324v-336h-324zM170 719v336h324v-336h-324z" />
<glyph unicode=";" horiz-adv-x="663" d="M39 -227l121 567h327l-198 -567h-250zM170 719v336h324v-336h-324z" />
<glyph unicode="&#x3c;" d="M121 479v219l1032 457v-297l-676 -268v-4l676 -267v-296z" />
<glyph unicode="=" d="M127 219v266h1036v-266h-1036zM127 690v266h1036v-266h-1036z" />
<glyph unicode="&#x3e;" d="M137 23v296l676 267v4l-676 268v297l1032 -457v-219z" />
<glyph unicode="?" horiz-adv-x="1046" d="M70 1325q6 7 18 18.5t53.5 40.5t87.5 51.5t119 41t150 18.5q70 0 137.5 -16t129 -49.5t108.5 -80t74.5 -112.5t27.5 -143q0 -68 -19.5 -127t-50 -101t-68 -79t-75 -67.5t-68 -59.5t-50 -63t-19.5 -71v-73h-340v102q0 56 17.5 105t46 84.5t62.5 67.5t68.5 60t63 55t46 59 t17.5 67q0 52 -42.5 86.5t-102.5 34.5q-44 0 -92.5 -22t-75.5 -44l-27 -23zM293 0v307h323v-307h-323z" />
<glyph unicode="@" horiz-adv-x="1683" d="M72 489q0 160 61.5 302.5t167.5 245.5t256 163t320 60q132 0 237 -26t174 -70.5t114.5 -107.5t65 -134t19.5 -154v-406h151v-243h-579q-111 0 -201.5 32t-147 85t-86.5 119t-30 137q0 69 29.5 132.5t85 115t146.5 82t204 30.5h100q0 61 -85 96t-191 35 q-97 0 -184.5 -42.5t-148.5 -111.5t-96.5 -158.5t-35.5 -181.5q0 -99 34 -186.5t97.5 -155.5t163 -107.5t221.5 -39.5v-266q-197 0 -360.5 58.5t-272.5 160.5t-169 240t-60 296zM944 500q0 -60 35 -99t100 -39h80v275h-76q-67 0 -103 -39t-36 -98z" />
<glyph unicode="A" horiz-adv-x="1409" d="M20 0v307h39q24 0 35.5 9t20.5 36l399 1112h381l399 -1112q9 -27 20.5 -36t35.5 -9h39v-307h-236q-76 0 -113 26t-59 93l-63 188h-426l-64 -188q-22 -67 -59 -93t-113 -26h-236zM569 604h271l-74 244q-13 41 -27.5 101.5t-22.5 100.5l-9 40h-5q-30 -150 -59 -242z" />
<glyph unicode="B" horiz-adv-x="1327" d="M57 1157v307h641q226 0 362 -99.5t136 -283.5q0 -112 -51.5 -193.5t-118.5 -117.5v-4q80 -24 133.5 -79.5t74.5 -118.5t21 -132q0 -93 -30 -167.5t-82 -124t-123.5 -82.5t-151.5 -47.5t-170 -14.5h-358q-78 0 -114 36t-36 114v1007h-133zM557 352q0 -45 45 -45h131 q70 0 108 44t38 110q0 65 -37 107t-107 42h-178v-258zM557 897h145q61 0 93 39t32 96q0 55 -33 90t-98 35h-139v-260z" />
<glyph unicode="C" horiz-adv-x="1474" d="M49 748q0 207 98 377t271.5 267t388.5 97q40 0 86 -4.5t101 -15.5t107 -28t101 -44.5t85.5 -61.5t58.5 -82.5t22 -105.5v-193h-328v80q0 57 -70.5 87t-154.5 30q-167 0 -276 -105.5t-109 -297.5q0 -118 53 -218.5t143.5 -158.5t196.5 -58q52 0 103.5 10.5t91.5 27 t76.5 36t62.5 39.5t45.5 36.5t29.5 27.5l9 10l186 -262q-9 -11 -26 -28.5t-76.5 -63t-125 -80t-169.5 -63t-213 -28.5q-227 0 -403 101.5t-270.5 277t-94.5 394.5z" />
<glyph unicode="D" horiz-adv-x="1464" d="M57 1157v307h602q349 0 552.5 -193t203.5 -536t-204 -539t-552 -196h-319q-78 0 -114 36t-36 114v1007h-133zM557 352q0 -45 45 -45h43q184 0 286.5 110t102.5 318q0 205 -104 313.5t-285 108.5h-88v-805z" />
<glyph unicode="E" horiz-adv-x="1216" d="M57 1157v307h922q78 0 113.5 -35.5t35.5 -113.5v-283h-327v80q0 45 -45 45h-199v-266h418v-307h-418v-232q0 -45 45 -45h203q45 0 45 45v80h328v-282q0 -78 -36 -114t-114 -36h-688q-78 0 -114 36t-36 114v1007h-133z" />
<glyph unicode="F" horiz-adv-x="1122" d="M57 1157v307h881q78 0 113.5 -35.5t35.5 -113.5v-283h-327v80q0 45 -45 45h-158v-307h418v-307h-418v-543h-367v1157h-133z" />
<glyph unicode="G" horiz-adv-x="1540" d="M49 745q0 208 98 378t272 268t388 98q105 0 200.5 -19.5t156.5 -47.5t107 -56.5t67 -47.5l20 -20l-205 -260q-6 5 -17 13t-46.5 28t-72.5 35.5t-92.5 28t-109.5 12.5q-74 0 -142.5 -28t-123 -79t-87 -129t-32.5 -171q0 -105 33.5 -189.5t90.5 -137t128.5 -80.5t151.5 -28 q54 0 105 11t85.5 26.5t61 31.5t38.5 27l13 11v55q0 45 -45 45h-88v307h309q78 0 113.5 -35.5t35.5 -113.5v-678h-307v41l2 61h-4q-6 -5 -17 -13.5t-49.5 -30.5t-81.5 -39t-110 -30.5t-137 -13.5q-111 0 -215 31.5t-194 96t-157 155t-105 216t-38 271.5z" />
<glyph unicode="H" horiz-adv-x="1609" d="M57 1157v307h351q78 0 113.5 -35.5t35.5 -113.5v-436h496v436q0 78 35.5 113.5t113.5 35.5h350v-307h-88q-45 0 -45 -45v-1112h-366v573h-496v-573h-367v1112q0 45 -45 45h-88z" />
<glyph unicode="I" horiz-adv-x="780" d="M63 0v307h154v850h-154v307h654v-307h-154v-850h154v-307h-654z" />
<glyph unicode="J" horiz-adv-x="1159" d="M33 451v106h366v-68q0 -94 37.5 -135t98.5 -41q59 0 94 39.5t35 116.5v643q0 45 -46 45h-348v307h611q78 0 113.5 -35.5t35.5 -113.5v-864q0 -94 -28 -173t-76 -134t-112 -94t-136 -57t-148 -18q-96 0 -183.5 30.5t-158.5 88t-113 150t-42 207.5z" />
<glyph unicode="K" horiz-adv-x="1370" d="M57 1157v307h351q78 0 113.5 -35.5t35.5 -113.5v-416h49q25 0 37 1t28.5 4.5t27.5 13.5t20 26l248 520h399l-293 -592q-22 -44 -49 -76t-43 -42l-16 -9v-4q2 -1 6.5 -2.5t18 -9.5t26.5 -19t30 -33.5t31 -51.5l133 -271q14 -29 38.5 -38t62.5 -9h39v-307h-215 q-82 0 -128.5 22t-78.5 87l-219 438q-9 17 -21 27t-30.5 14t-31.5 5t-40 1h-29v-594h-367v1112q0 45 -45 45h-88z" />
<glyph unicode="L" horiz-adv-x="1187" d="M57 1157v307h351q78 0 113.5 -35.5t35.5 -113.5v-963q0 -45 45 -45h193q45 0 45 45v80h327v-282q0 -78 -35.5 -114t-113.5 -36h-678q-78 0 -114 36t-36 114v962q0 45 -45 45h-88z" />
<glyph unicode="M" horiz-adv-x="1822" d="M33 0v307h51q42 0 45 45l90 1112h383l234 -577q16 -41 34.5 -93.5t28.5 -85.5l10 -32h4q37 119 74 211l234 577h383l90 -1112q3 -45 45 -45h51v-307h-303q-76 0 -110 35t-40 115l-32 468q-4 49 -4 110.5t2 98.5l2 37h-5q-42 -156 -81 -246l-164 -382h-287l-164 382 q-17 40 -37.5 101.5t-32.5 102.5l-12 42h-4q4 -68 4 -129t-4 -117l-33 -468q-6 -80 -39.5 -115t-109.5 -35h-303z" />
<glyph unicode="N" horiz-adv-x="1593" d="M57 0v307h88q45 0 45 45v1112h330l406 -628q27 -42 58 -97t48 -89l17 -34h4q-17 128 -17 220v479q0 78 36 113.5t114 35.5h350v-307h-88q-45 0 -45 -45v-1112h-328l-407 627q-27 41 -58 95.5t-48 89.5l-17 34h-4q16 -127 16 -219v-477q0 -78 -35.5 -114t-113.5 -36h-351z " />
<glyph unicode="O" horiz-adv-x="1630" d="M49 741q0 155 58 293.5t158.5 238.5t243.5 158t306 58t306 -58t243.5 -158t158.5 -238.5t58 -293.5q0 -213 -98.5 -388t-274.5 -276.5t-393 -101.5t-393 101.5t-274.5 276.5t-98.5 388zM430 741q0 -182 112 -305t273 -123t273 123t112 305q0 174 -112 292t-273 118 t-273 -118t-112 -292z" />
<glyph unicode="P" horiz-adv-x="1280" d="M57 1157v307h711q213 0 345 -140.5t132 -362.5q0 -223 -132.5 -365.5t-344.5 -142.5h-211v-453h-367v1157h-133zM557 760h137q86 0 131 55t45 146q0 90 -43.5 143t-126.5 53h-143v-397z" />
<glyph unicode="Q" horiz-adv-x="1630" d="M49 741q0 155 58 293t158.5 237.5t243.5 157.5t306 58t306 -58t243.5 -157.5t158.5 -237.5t58 -293q0 -222 -143 -430l143 -118l-215 -240l-145 137q-171 -115 -406 -115q-217 0 -393 101.5t-274.5 276.5t-98.5 388zM430 741q0 -182 112 -305t273 -123q42 0 76 6t47 11 l14 6l-127 108l213 240l127 -125q35 84 35 182q0 173 -112 290.5t-273 117.5t-273 -117.5t-112 -290.5z" />
<glyph unicode="R" horiz-adv-x="1337" d="M57 1157v307h684q218 0 351 -121.5t133 -338.5q0 -60 -12 -113t-31 -90.5t-41.5 -69t-45.5 -51t-42 -33t-31 -19.5l-12 -5v-5q6 -3 16.5 -9t34.5 -28.5t39 -50.5l92 -176q16 -29 39.5 -38t60.5 -9h25v-307h-201q-81 0 -127 22.5t-80 86.5l-172 329q-18 33 -45.5 44.5 t-85.5 11.5h-49v-494h-367v1157h-133zM557 801h127q82 0 124 46t42 134q0 87 -41.5 131.5t-118.5 44.5h-133v-356z" />
<glyph unicode="S" horiz-adv-x="1173" d="M57 217l203 256q6 -7 17.5 -18.5t47.5 -41t73.5 -52.5t91.5 -41.5t106 -18.5q63 0 105 26t42 83q0 32 -36.5 61.5t-95 56t-129.5 57t-141.5 72t-129 93t-95 129t-36.5 170.5q0 129 70 230t188.5 155.5t263.5 54.5q61 0 123.5 -11.5t125 -36.5t110.5 -61t78 -90.5 t30 -118.5v-159h-328v63q0 38 -44 62t-99 24q-61 0 -105 -25t-44 -73q0 -28 22.5 -52.5t61 -44.5t88.5 -40t105 -43t109.5 -50.5t104.5 -66t88.5 -84.5t61 -111.5t22.5 -142.5q0 -92 -35.5 -174t-100.5 -144t-164.5 -98.5t-219.5 -36.5q-70 0 -137.5 13.5t-119 34.5t-98 47 t-78.5 52t-55.5 47t-35.5 35z" />
<glyph unicode="T" horiz-adv-x="1390" d="M31 1032v291q0 78 31.5 109.5t109.5 31.5h1047q78 0 109.5 -31.5t31.5 -109.5v-291h-318v80q0 45 -45 45h-118v-1157h-367v1157h-119q-45 0 -45 -45v-80h-317z" />
<glyph unicode="U" horiz-adv-x="1552" d="M41 1157v307h350q78 0 114 -35.5t36 -113.5v-766q0 -113 64 -174.5t171 -61.5t171.5 61.5t64.5 174.5v766q0 78 35.5 113.5t113.5 35.5h350v-307h-88q-45 0 -45 -45v-573q0 -249 -165 -406.5t-435 -157.5q-273 0 -438.5 157t-165.5 407v573q0 45 -45 45h-88z" />
<glyph unicode="V" horiz-adv-x="1449" d="M20 1157v307h256q76 0 113.5 -26t59.5 -92l219 -684q14 -41 27.5 -100t20.5 -98l7 -38h4q24 144 55 236l219 684q22 66 59.5 92t113.5 26h256v-307h-52q-24 0 -35 -9t-20 -36l-405 -1112h-386l-405 1112q-9 27 -20 36t-35 9h-52z" />
<glyph unicode="W" horiz-adv-x="2105" d="M31 1157v307h262q79 0 124 -26.5t58 -91.5l162 -766q8 -40 12.5 -78.5t4.5 -57.5l1 -18h4q2 64 25 154l223 882h293l221 -882q10 -40 16.5 -78.5t7.5 -57.5l1 -18h4q0 64 18 154l162 766q13 65 57.5 91.5t124.5 26.5h263v-307h-52q-25 0 -38 -9.5t-19 -35.5l-278 -1112 h-420l-185 682q-12 42 -19 81t-8 57l-1 18h-4q-2 -62 -29 -156l-184 -682h-420l-279 1112q-6 26 -19 35.5t-38 9.5h-51z" />
<glyph unicode="X" horiz-adv-x="1325" d="M-4 0l442 727l-239 385q-21 32 -31 38.5t-43 6.5h-76v307h238q72 0 109.5 -20.5t68.5 -77.5l104 -190q23 -41 45.5 -87t33.5 -72l11 -26h5q39 93 90 185l106 190q32 57 69 77.5t109 20.5h238v-307h-76q-33 0 -43 -6.5t-31 -38.5l-241 -385l444 -727h-407l-168 295 q-23 41 -45.5 85.5t-33.5 68.5l-11 24h-5q-39 -86 -90 -178l-168 -295h-405z" />
<glyph unicode="Y" horiz-adv-x="1296" d="M20 1157v307h201q73 0 113.5 -19t75.5 -79l149 -252q24 -42 46 -83t32 -61l10 -20h4q33 70 88 164l148 252q35 60 75.5 79t112.5 19h201v-307h-59q-33 0 -43 -6.5t-31 -38.5l-312 -471v-641h-366v641l-311 471q-21 32 -31 38.5t-43 6.5h-60z" />
<glyph unicode="Z" horiz-adv-x="1226" d="M33 0v225l559 801q28 40 56 73t42 47l15 13v4q-47 -6 -113 -6h-180q-45 0 -45 -45v-80h-328v283q0 78 35.5 113.5t113.5 35.5h973v-221l-561 -805q-28 -40 -56 -73.5t-42 -46.5l-15 -13v-4q47 6 113 6h221q45 0 45 45v80h328v-282q0 -78 -36 -114t-114 -36h-1011z" />
<glyph unicode="[" horiz-adv-x="798" d="M174 -45v1431q0 78 36 114t114 36h354v-246h-164q-45 0 -45 -45v-1149q0 -45 45 -45h164v-246h-354q-78 0 -114 36t-36 114z" />
<glyph unicode="\" horiz-adv-x="819" d="M10 1536h295l524 -1622h-294z" />
<glyph unicode="]" horiz-adv-x="798" d="M121 51h164q45 0 45 45v1149q0 45 -45 45h-164v246h354q78 0 114 -36t36 -114v-1431q0 -78 -36 -114t-114 -36h-354v246z" />
<glyph unicode="^" d="M119 494l416 970h219l415 -970h-297l-229 614l-227 -614h-297z" />
<glyph unicode="_" horiz-adv-x="1241" d="M10 0h1221v-266h-1221v266z" />
<glyph unicode="`" horiz-adv-x="880" d="M115 1866h321l166 -307h-246z" />
<glyph unicode="a" horiz-adv-x="1196" d="M57 315q0 64 26 117.5t66.5 89t97.5 62.5t112.5 41.5t117.5 24t106.5 12t86.5 2.5h14v12q0 73 -33.5 105t-101.5 32q-92 0 -92 -51v-47h-328v116q0 49 17.5 88t44 64.5t66 44t75.5 28t81 15.5t74 7t62 1q134 0 231.5 -32.5t152.5 -92.5t80 -135t25 -170v-307 q0 -45 45 -45h78v-297h-307q-70 0 -104.5 34.5t-34.5 76.5v18h-4q-3 -6 -9.5 -16.5t-31 -37t-55 -47t-84 -37t-115.5 -16.5q-152 0 -255.5 93.5t-103.5 246.5zM414 334q0 -39 25 -63.5t75 -24.5q67 0 120.5 59.5t53.5 126.5v17h-33q-61 0 -113 -10.5t-90 -37.5t-38 -67z" />
<glyph unicode="b" horiz-adv-x="1318" d="M31 1167v297h327q78 0 114 -35.5t36 -113.5v-248l-4 -90h4q4 4 12 11t35 24.5t57.5 31t79.5 24.5t101 11q214 0 344.5 -153t130.5 -400t-139 -399t-353 -152q-55 0 -104.5 11t-82 27.5t-56.5 32.5t-35 27l-11 11h-4q2 -26 2 -59v-25h-331v1122q0 45 -45 45h-78zM498 520 q0 -103 54.5 -177.5t152.5 -74.5q87 0 146.5 67.5t59.5 184.5q0 118 -56.5 189t-149.5 71q-87 0 -147 -66t-60 -194z" />
<glyph unicode="c" horiz-adv-x="1118" d="M51 528q0 85 23.5 164.5t72 150t118 123t168 83t214.5 30.5q47 0 97 -7.5t103 -25.5t94.5 -45t68 -71.5t26.5 -98.5v-145h-307v55q0 45 -82 45q-110 0 -174.5 -72.5t-64.5 -181.5q0 -65 23 -115t61.5 -78.5t84.5 -43t97 -14.5q68 0 140.5 34.5t111.5 68.5l39 34l141 -238 q-7 -8 -20 -22t-58 -49.5t-95 -62.5t-130 -49t-164 -22q-137 0 -250 45.5t-186 122t-112.5 176t-39.5 209.5z" />
<glyph unicode="d" horiz-adv-x="1329" d="M51 528q0 248 134 399.5t347 151.5q95 0 164 -18.5t91 -36.5l22 -18h4q-2 20 -2 47v69q0 45 -45 45h-78v297h328q78 0 113.5 -35.5t35.5 -113.5v-973q0 -45 45 -45h78v-297h-315q-70 0 -103.5 29.5t-33.5 70.5v19h-5q-4 -6 -11 -15.5t-34 -34.5t-59 -44t-86 -34.5 t-115 -15.5q-214 0 -344.5 153t-130.5 400zM408 528q0 -118 56.5 -189t149.5 -71q87 0 147 66t60 194q0 103 -54.5 177.5t-152.5 74.5q-87 0 -146.5 -67.5t-59.5 -184.5z" />
<glyph unicode="e" horiz-adv-x="1155" d="M51 528q0 155 65.5 279.5t191.5 198t292 73.5q152 0 263.5 -66.5t167.5 -181t56 -262.5l-8 -106h-665q19 -95 87 -144t158 -49q68 0 138 28t107 56l36 27l141 -238q-7 -7 -20 -18t-57.5 -40t-93 -51.5t-124.5 -40.5t-155 -18q-137 0 -249 46.5t-183 124.5t-109.5 176.5 t-38.5 205.5zM424 678h301q0 52 -36 93.5t-89 41.5q-136 0 -176 -135z" />
<glyph unicode="f" horiz-adv-x="772" d="M33 778v277h129v24q0 99 35 173.5t85.5 115t120 65.5t126 32.5t116.5 7.5q28 0 54.5 -1.5t39.5 -3.5l13 -2v-299q-25 4 -58 4q-178 0 -178 -102v-14h195v-277h-195v-778h-354v778h-129z" />
<glyph unicode="g" horiz-adv-x="1304" d="M51 561q0 103 29.5 194.5t86.5 164.5t149 116t208 43q60 0 113.5 -12.5t87 -31t58.5 -36.5t35 -31l11 -12h5v15q0 28 29 56t83 28h320v-297h-74q-21 0 -33 -10.5t-12 -28.5v-623q0 -112 -34.5 -202.5t-92 -149.5t-135.5 -99t-161 -57.5t-173 -17.5q-103 0 -211.5 26.5 t-187.5 67.5l102 277q14 -8 40 -19t103.5 -30t151.5 -19q108 0 176 47.5t68 155.5v16l2 39h-4q-90 -100 -265 -100q-115 0 -207.5 44.5t-149.5 119.5t-87.5 169t-30.5 197zM408 573q0 -106 51 -176.5t151 -70.5q81 0 136 52.5t55 178.5q0 67 -16.5 113.5t-47 70t-64.5 33.5 t-77 10q-91 0 -139.5 -58.5t-48.5 -152.5z" />
<glyph unicode="h" horiz-adv-x="1366" d="M31 1167v297h327q78 0 114 -35.5t36 -113.5v-314l-4 -90h4q44 78 130.5 123t190.5 45q83 0 149.5 -20.5t119.5 -65t81.5 -123t28.5 -186.5v-342q0 -45 45 -45h78v-297h-327q-78 0 -114 36t-36 114v468q0 73 -29 106.5t-88 33.5q-79 0 -133 -42t-78 -114q-18 -53 -18 -135 v-467h-354v1122q0 45 -45 45h-78z" />
<glyph unicode="i" horiz-adv-x="690" d="M45 758v297h328q78 0 113.5 -36t35.5 -114v-563q0 -45 45 -45h78v-297h-328q-78 0 -113.5 36t-35.5 114v563q0 45 -45 45h-78zM195 1178v286h297v-286h-297z" />
<glyph unicode="j" horiz-adv-x="684" d="M-37 -125q18 -2 45 -2q32 0 60.5 5t60.5 17.5t51 41.5t19 71v705q0 45 -45 45h-78v297h327q78 0 114 -36t36 -114v-932q0 -73 -19 -133.5t-50 -101t-75 -71t-87.5 -48t-94.5 -28t-90.5 -14t-79.5 -3.5q-25 0 -48.5 1.5t-34.5 2.5l-11 2v295zM221 1178v286h297v-286h-297z " />
<glyph unicode="k" horiz-adv-x="1222" d="M31 1167v297h327q84 0 117 -22t33 -96v-639h55q17 0 24.5 0.5t21.5 3t23 9.5t15 19l172 316h385l-239 -406q-17 -30 -36.5 -52t-30.5 -29l-11 -7v-4q5 -2 13 -6.5t29.5 -27t37.5 -54.5l67 -137q10 -21 27.5 -28t50.5 -7h82v-297h-268q-61 0 -94 15.5t-58 64.5l-151 295 q-18 35 -84 35h-31v-410h-354v1122q0 45 -45 45h-78z" />
<glyph unicode="l" horiz-adv-x="671" d="M31 1167v297h327q78 0 114 -35.5t36 -113.5v-973q0 -45 45 -45h78v-297h-328q-78 0 -113.5 36t-35.5 114v972q0 45 -45 45h-78z" />
<glyph unicode="m" horiz-adv-x="1951" d="M39 758v297h317q71 0 109.5 -32t38.5 -87v-14l-2 -25h4q121 182 309 182q101 0 177.5 -45t117.5 -133h4q46 73 136.5 125.5t201.5 52.5q156 0 249 -94.5t93 -300.5v-342q0 -45 45 -45h78v-297h-328q-78 0 -113.5 36t-35.5 114v475q0 65 -17.5 99t-64.5 34 q-76 0 -124.5 -55t-66.5 -148q-12 -55 -12 -119v-436h-354v625q0 65 -17.5 99t-64.5 34q-75 0 -122 -52.5t-67 -142.5q-14 -68 -14 -127v-436h-354v713q0 45 -45 45h-78z" />
<glyph unicode="n" horiz-adv-x="1374" d="M39 758v297h315q71 0 109.5 -32t38.5 -87v-14l-2 -25h4q109 182 334 182q83 0 149.5 -20.5t119.5 -65t81.5 -123t28.5 -186.5v-342q0 -45 45 -45h77v-297h-327q-78 0 -114 36t-36 114v468q0 73 -29 106.5t-88 33.5q-156 0 -208 -152q-21 -62 -21 -139v-467h-354v713 q0 45 -45 45h-78z" />
<glyph unicode="o" horiz-adv-x="1294" d="M51 524q0 122 46.5 226.5t126.5 176t189 112t232 40.5q166 0 302 -68.5t216 -196.5t80 -290q0 -161 -80 -287.5t-215 -194t-301 -67.5t-301 67.5t-215 194t-80 287.5zM408 524q0 -115 69.5 -184.5t169.5 -69.5t170 69.5t70 184.5q0 117 -70 188.5t-170 71.5t-169.5 -71.5 t-69.5 -188.5z" />
<glyph unicode="p" horiz-adv-x="1327" d="M39 758v297h305q71 0 104 -27t33 -65v-19h4q4 5 11.5 14.5t35.5 32.5t61.5 41t89.5 32.5t118 14.5q214 0 344.5 -153t130.5 -400t-139 -399t-353 -152q-48 0 -93.5 9.5t-75.5 22.5t-53.5 26.5t-34.5 22.5l-11 10h-4q4 -38 4 -91v-385h-354v1123q0 45 -45 45h-78zM506 520 q0 -103 54.5 -177.5t152.5 -74.5q87 0 147 67.5t60 184.5q0 118 -57 189t-150 71q-87 0 -147 -66t-60 -194z" />
<glyph unicode="q" horiz-adv-x="1327" d="M51 528q0 248 134 399.5t347 151.5q64 0 119.5 -12t89 -29t58.5 -34t35 -29l10 -12h4v12q0 34 35.5 57t105.5 23h299v-297h-78q-45 0 -45 -45v-1123h-354v404l4 90h-4q-4 -4 -11 -11.5t-33.5 -26.5t-57 -33t-80 -26t-103.5 -12q-214 0 -344.5 153t-130.5 400zM408 528 q0 -118 56.5 -189t149.5 -71q87 0 147 66t60 194q0 103 -54.5 177.5t-152.5 74.5q-87 0 -146.5 -67.5t-59.5 -184.5z" />
<glyph unicode="r" horiz-adv-x="923" d="M39 758v297h313q150 0 150 -135v-56l-4 -53h4q35 111 128 186.5t208 75.5l41 -4v-348q-29 6 -72 6q-37 0 -72 -7t-75.5 -25t-73.5 -57t-51 -95q-19 -62 -19 -144v-399h-354v713q0 45 -45 45h-78z" />
<glyph unicode="s" horiz-adv-x="1005" d="M43 168l158 227q6 -6 17 -16.5t45 -36.5t68.5 -45.5t84 -36t94.5 -16.5q80 0 80 51q0 15 -22.5 31t-60 30t-85 33t-97 40t-97 53t-85 68.5t-60 89.5t-22.5 114q0 82 36 146t98 102t138.5 57.5t162.5 19.5q56 0 109 -6.5t109 -23.5t97 -42.5t67.5 -68.5t26.5 -98v-125 h-307v51q0 21 -28.5 35t-67.5 14t-66.5 -13t-27.5 -36q0 -22 29.5 -40.5t76.5 -35t104 -35.5t114 -47.5t104 -65.5t76.5 -95t29.5 -130q0 -157 -121.5 -249.5t-310.5 -92.5q-85 0 -164 20t-132 48.5t-93.5 56.5t-58.5 48z" />
<glyph unicode="t" horiz-adv-x="813" d="M27 778v277h145v284h344v-284h221v-277h-221v-342q0 -42 19 -71t51 -41.5t60 -17.5t59 -5l47 2v-307q-40 -6 -97 -6q-41 0 -80.5 3.5t-90.5 14t-94 28t-86.5 48t-73.5 71t-49 101t-19 133.5v389h-135z" />
<glyph unicode="u" horiz-adv-x="1363" d="M35 758v297h327q78 0 114 -36t36 -114v-469q0 -139 113 -139q109 0 166 82.5t57 208.5v467h354v-713q0 -45 45 -45h78v-297h-313q-71 0 -110.5 32t-39.5 87v14l2 25h-4q-42 -84 -131.5 -133.5t-196.5 -49.5q-82 0 -147.5 20.5t-117.5 65.5t-80.5 123.5t-28.5 186.5v342 q0 45 -45 45h-78z" />
<glyph unicode="v" horiz-adv-x="1161" d="M20 758v297h226q115 0 143 -86l160 -475q10 -30 20 -72.5t15 -69.5l4 -28h4q16 102 39 170l157 475q13 41 51.5 63.5t94.5 22.5h207v-297h-27q-38 0 -49 -33l-268 -725h-432l-273 725q-11 33 -45 33h-27z" />
<glyph unicode="w" horiz-adv-x="1712" d="M20 758v297h263q117 0 137 -101l106 -522q5 -25 8.5 -52.5t3.5 -42.5l1 -15h4q4 53 18 110l146 619h303l145 -619q6 -25 10 -52.5t5 -42.5l1 -15h5q0 53 12 110l106 522q20 101 136 101h262v-297h-31q-19 0 -28.5 -6.5t-16.5 -26.5l-213 -725h-404l-118 487 q-6 25 -11.5 53.5t-7.5 43.5l-2 16h-4q-6 -56 -20 -113l-119 -487h-408l-213 725q-6 20 -15.5 26.5t-29.5 6.5h-31z" />
<glyph unicode="x" horiz-adv-x="1103" d="M10 0l326 522l-133 205q-14 21 -25 26t-43 5h-100v297h264q58 0 92.5 -18.5t59.5 -67.5l67 -129l31 -70h4q19 43 33 70l67 129q25 49 59.5 67.5t92.5 18.5h264v-297h-100q-32 0 -43 -5t-25 -26l-133 -205l326 -522h-389l-127 217l-25 53h-4q-15 -35 -25 -53l-125 -217 h-389z" />
<glyph unicode="y" horiz-adv-x="1157" d="M-8 -317l127 249q7 -8 19.5 -19t50.5 -29.5t75 -18.5q117 0 158 104l12 31l-334 725q-9 20 -17.5 26.5t-27.5 6.5h-39v297h258q92 0 123 -86l156 -426q9 -25 18.5 -66t14.5 -69l6 -29h4q19 107 35 164l117 426q10 40 45.5 63t78.5 23h265v-297h-39q-20 0 -31 -7t-18 -26 l-320 -838q-33 -84 -82.5 -147t-108.5 -99t-121 -53.5t-128 -17.5q-51 0 -100.5 11.5t-83.5 28t-60.5 33.5t-39.5 29z" />
<glyph unicode="z" horiz-adv-x="1067" d="M35 0v176l405 486q24 29 47 53t34 33l11 10v4q-26 -4 -92 -4h-39q-45 0 -45 -45v-43h-317v235q0 78 35.5 114t113.5 36h807v-178l-403 -486q-23 -28 -46.5 -52t-35.5 -34l-12 -10v-4q26 6 94 6h78q45 0 45 45v43h317v-235q0 -78 -35.5 -114t-113.5 -36h-848z" />
<glyph unicode="{" horiz-adv-x="761" d="M35 524v307q7 0 19 1t42 12t52.5 30.5t41.5 61t19 98.5v180q0 84 29.5 147t72 97t101.5 55t106 27t98 6l89 -4v-254q-23 4 -52 4q-26 0 -49 -4.5t-47 -15t-38.5 -34t-14.5 -56.5v-240q0 -59 -17.5 -107t-43 -75t-51 -46t-42.5 -26l-18 -6v-4q7 -2 18.5 -6t41 -23 t52.5 -45t41.5 -75t18.5 -109v-260q0 -33 14.5 -56.5t38.5 -34.5t47 -15.5t49 -4.5l52 4v-254q-38 -4 -89 -4t-98 6t-106 27t-101.5 55t-72 97t-29.5 147v201q0 55 -18 95.5t-43.5 59t-51 29t-43.5 11.5z" />
<glyph unicode="|" horiz-adv-x="684" d="M195 -338v1980h294v-1980h-294z" />
<glyph unicode="}" horiz-adv-x="761" d="M57 53q23 -4 52 -4q26 0 49 4.5t47 15.5t38.5 34.5t14.5 56.5v260q0 60 17.5 109t43 75.5t51 44.5t42.5 23l18 6v4q-7 2 -18.5 6.5t-41 25t-52.5 46.5t-41.5 74.5t-18.5 107.5v240q0 33 -14.5 56.5t-38.5 34t-47 15t-49 4.5l-52 -4v254q37 4 88 4q35 0 68 -3t75 -12 t78 -23.5t71.5 -40t60 -59.5t40 -83.5t15.5 -110.5v-180q0 -57 18 -98.5t43.5 -61t51 -30.5t43.5 -12l18 -1v-307q-7 0 -19 -1t-42 -11.5t-52.5 -29t-41.5 -59t-19 -95.5v-201q0 -61 -15.5 -110.5t-40 -83.5t-60 -59.5t-71.5 -40t-78 -23.5t-75 -12t-68 -3l-88 4v254z" />
<glyph unicode="~" d="M98 391q0 416 357 416q53 0 98.5 -17t77.5 -41t60 -48t57.5 -41t58.5 -17q51 0 82 40t31 116h272q0 -416 -354 -416q-53 0 -98.5 17t-77.5 41t-60.5 48t-58.5 41t-60 17q-49 0 -79.5 -40.5t-30.5 -115.5h-275z" />
<glyph unicode="&#xa1;" horiz-adv-x="737" d="M184 -410l33 1010h303l33 -1010h-369zM207 745v308h323v-308h-323z" />
<glyph unicode="&#xa2;" horiz-adv-x="1263" d="M113 733q0 215 123.5 376.5t308.5 203.5v223h233v-223q139 -31 243 -124.5t148 -227.5l-315 -123q-22 66 -70 109.5t-114 43.5q-77 0 -139 -73t-62 -185q0 -122 58.5 -190t142.5 -68q65 0 113.5 44t70.5 110l315 -123q-20 -56 -53 -110t-81 -105.5t-115 -88.5t-142 -48 v-226h-233v226q-185 42 -308.5 202.5t-123.5 376.5z" />
<glyph unicode="&#xa3;" horiz-adv-x="1206" d="M84 0v307h113v305h-88v230h88v205q0 195 140.5 318.5t358.5 123.5q68 0 134 -17.5t112.5 -42.5t83 -50t54.5 -43l18 -17l-199 -242q-11 10 -29 25t-68.5 40t-94.5 25q-60 0 -102 -36.5t-42 -94.5v-194h338v-230h-338v-305h191q45 0 45 45v80h327v-282q0 -78 -35.5 -114 t-113.5 -36h-893z" />
<glyph unicode="&#xa5;" horiz-adv-x="1296" d="M20 1157v307h201q73 0 113.5 -19t75.5 -79l149 -252l88 -160h4q33 66 88 160l148 252q35 60 75.5 79t112.5 19h201v-307h-59q-33 0 -43 -6.5t-31 -38.5l-127 -190v-4h139v-197h-270l-54 -80v-78h324v-196h-324v-367h-366v367h-326v196h326v78l-53 80h-273v197h142v4 l-127 190q-21 32 -31 38.5t-43 6.5h-60z" />
<glyph unicode="&#xa7;" horiz-adv-x="1173" d="M127 31l141 235q5 -5 14 -12.5t38.5 -26.5t60.5 -34t77 -27t91 -12q90 0 145.5 45t55.5 147q0 64 -27 158l-139 491h268l152 -559q20 -76 20 -153q0 -182 -122.5 -296t-350.5 -114q-76 0 -148 16.5t-119.5 39.5t-84.5 46t-55 39zM174 1079q0 182 122.5 296t350.5 114 q76 0 148 -16.5t119.5 -39.5t84.5 -46t55 -39l17 -17l-151 -221q-5 4 -13 10.5t-36 23t-57.5 29t-74 23t-88.5 10.5q-94 0 -147 -38t-53 -132q0 -61 20 -137l147 -532h-268l-155 559q-21 80 -21 153z" />
<glyph unicode="&#xa8;" horiz-adv-x="1069" d="M211 1579v287h229v-287h-229zM627 1579v287h229v-287h-229z" />
<glyph unicode="&#xa9;" horiz-adv-x="1581" d="M51 733q0 154 58 293.5t156.5 240.5t234.5 160.5t286 59.5q153 0 290.5 -59.5t237 -160.5t158 -240.5t58.5 -293.5t-58.5 -294.5t-158 -242t-237.5 -161.5t-290 -60q-120 0 -232 38.5t-202.5 108.5t-158.5 163t-105 209t-37 239zM283 733q0 -151 66 -276.5t181.5 -198 t255.5 -72.5q143 0 261 72.5t185.5 198t67.5 276.5q0 150 -67.5 274.5t-185.5 196.5t-261 72q-140 0 -255.5 -72t-181.5 -196.5t-66 -274.5zM438 727q0 161 105 272t248 111q74 0 135.5 -24.5t96.5 -59t58.5 -69t32.5 -59.5l8 -24l-204 -79q-1 4 -3.5 11t-12.5 24t-22 30 t-34 24t-47 11q-48 0 -84.5 -48t-36.5 -120q0 -81 33.5 -124.5t87.5 -43.5q40 0 69.5 25t39.5 50l10 25l204 -79q-3 -10 -9 -25.5t-31.5 -56.5t-59 -72t-95.5 -56.5t-136 -25.5q-143 0 -248 111t-105 272z" />
<glyph unicode="&#xaa;" horiz-adv-x="856" d="M84 1006q0 61 35.5 105.5t92.5 66t111 30.5t109 9h29q-3 44 -17.5 59.5t-48.5 15.5q-39 0 -39 -22v-19h-229v95q0 43 30 73t77 43t85.5 18t75.5 5q85 0 146.5 -22t96.5 -61t51 -87.5t16 -108.5v-168q0 -28 28 -28h47v-211h-174q-100 0 -117 63l-4 15h-4q-2 -4 -7 -10 t-21.5 -21.5t-35.5 -27.5t-50 -22t-64 -10q-89 0 -154 59.5t-65 160.5zM88 549v174h692v-174h-692zM330 1014q0 -41 43 -41q35 0 57.5 26.5t32.5 69.5h-14q-47 0 -83 -13.5t-36 -41.5z" />
<glyph unicode="&#xab;" horiz-adv-x="1404" d="M106 578l336 421h324l-336 -421l336 -420h-324zM639 578l336 421h323l-335 -421l335 -420h-323z" />
<glyph unicode="&#xac;" d="M127 690v266h1036v-686h-276v420h-760z" />
<glyph unicode="&#xad;" horiz-adv-x="880" d="M119 434v307h643v-307h-643z" />
<glyph unicode="&#xae;" horiz-adv-x="1581" d="M51 733q0 154 58 293.5t156.5 240.5t234.5 160.5t286 59.5q153 0 290.5 -59.5t237 -160.5t158 -240.5t58.5 -293.5t-58.5 -294.5t-158 -242t-237.5 -161.5t-290 -60q-120 0 -232 38.5t-202.5 108.5t-158.5 163t-105 209t-37 239zM283 733q0 -151 66 -276.5t181.5 -198 t255.5 -72.5q143 0 261 72.5t185.5 198t67.5 276.5q0 150 -67.5 274.5t-185.5 196.5t-261 72q-140 0 -255.5 -72t-181.5 -196.5t-66 -274.5zM461 942v152h393q115 0 182.5 -64t67.5 -172q0 -76 -40.5 -123.5t-78.5 -58.5v-4q31 -6 51 -39l45 -76q15 -25 37 -25h25v-149h-129 q-39 0 -62.5 11.5t-40.5 41.5l-90 164q-12 25 -63 25h-17v-242h-221v559h-59zM741 772h56q40 0 61 22.5t21 63.5q0 84 -78 84h-60v-170z" />
<glyph unicode="&#xaf;" horiz-adv-x="964" d="M199 1602v219h563v-219h-563z" />
<glyph unicode="&#xb0;" horiz-adv-x="884" d="M72 1141q0 146 108 250t262 104q153 0 262 -104.5t109 -249.5q0 -147 -108.5 -250t-262.5 -103q-155 0 -262.5 102.5t-107.5 250.5zM330 1143q0 -45 33 -77t79 -32t79.5 32t33.5 77q0 43 -33.5 74.5t-79.5 31.5t-79 -31.5t-33 -74.5z" />
<glyph unicode="&#xb1;" d="M86 455v266h420v457h278v-457h420v-266h-420v-455h-278v455h-420zM106 -143h1078v-267h-1078v267z" />
<glyph unicode="&#xb2;" horiz-adv-x="942" d="M106 719q0 50 16 94.5t37 75t58.5 62t64.5 49t70 42.5q75 41 114.5 76t39.5 78q0 26 -18.5 39.5t-47.5 13.5q-31 0 -47 -13t-16 -30v-41h-236v121q0 63 53 110t120.5 67t131.5 20q81 0 151.5 -29t119.5 -95t49 -159q0 -40 -10 -77t-23.5 -64t-40 -55t-45.5 -44.5 t-54.5 -38.5t-52.5 -31t-53 -28q-112 -59 -112 -82q0 -10 26 -10h156q12 0 12 12v64h236v-189q0 -56 -26.5 -82t-82.5 -26h-477q-46 0 -68.5 11.5t-33.5 47.5t-11 111z" />
<glyph unicode="&#xb3;" horiz-adv-x="942" d="M119 741l174 156q3 -5 9.5 -13.5t26 -30t40 -38t50 -30t58.5 -13.5q42 0 67 20.5t25 49.5t-24 46t-72 17h-72l-32 139l110 166q6 10 15 20.5t14 15.5l6 5v4q-28 -4 -55 -4h-53q-15 0 -15 -16v-43h-235v172q0 56 20.5 78t77.5 22h545v-176l-146 -190q50 -15 86.5 -46.5 t55 -70t26.5 -74t8 -69.5q0 -94 -51 -165.5t-129 -106t-168 -34.5q-62 0 -122.5 21.5t-102 52t-74 61.5t-48.5 53z" />
<glyph unicode="&#xb4;" horiz-adv-x="880" d="M266 1559l166 307h322l-242 -307h-246z" />
<glyph unicode="&#xb6;" horiz-adv-x="1361" d="M72 981q0 204 139 343.5t338 139.5h731v-307h-485v-1259h-246v596q-130 0 -239.5 64t-173.5 176t-64 247zM922 -102v1157h245v-1157h-245z" />
<glyph unicode="&#xb7;" horiz-adv-x="622" d="M150 436v336h323v-336h-323z" />
<glyph unicode="&#xb8;" horiz-adv-x="870" d="M236 -233q47 -21 92 -21q78 0 78 47q0 43 -84 43l-54 -4l72 227l147 -34v-15l-20 -84q68 -7 111 -47t43 -117q0 -101 -69.5 -146.5t-170.5 -45.5q-35 0 -71 4.5t-55 9.5l-19 4v179z" />
<glyph unicode="&#xb9;" horiz-adv-x="942" d="M100 1227l254 237h224v-694h182v-221h-625v221h184v305l3 62h-5q-6 -17 -18 -27l-51 -45z" />
<glyph unicode="&#xba;" horiz-adv-x="931" d="M92 1137q0 154 107.5 251t263.5 97q160 0 268.5 -97t108.5 -251t-108.5 -251.5t-266.5 -97.5q-157 0 -265 97.5t-108 251.5zM119 549v174h692v-174h-692zM336 1137q0 -63 37.5 -100.5t91.5 -37.5t91.5 37.5t37.5 100.5q0 62 -37.5 100.5t-91.5 38.5t-91.5 -38.5 t-37.5 -100.5z" />
<glyph unicode="&#xbb;" horiz-adv-x="1404" d="M106 158l336 420l-336 421h324l336 -421l-336 -420h-324zM639 158l336 420l-336 421h324l335 -421l-335 -420h-324z" />
<glyph unicode="&#xbc;" horiz-adv-x="2017" d="M121 1227l254 237h223v-694h168v-221h-610v221h184v305l2 62h-4q-7 -17 -19 -27l-51 -45zM666 0l534 1464h260l-534 -1464h-260zM1167 207v145l308 566h325v-488h129v-223h-129v-207h-260v207h-373zM1415 428q21 2 35 2h94v191l2 59h-4q-10 -32 -24 -59l-76 -150 q-5 -10 -12 -20t-11 -15l-4 -4v-4z" />
<glyph unicode="&#xbd;" horiz-adv-x="2017" d="M121 1227l254 237h223v-694h168v-221h-610v221h184v305l2 62h-4q-7 -17 -19 -27l-51 -45zM637 0l534 1464h261l-535 -1464h-260zM1239 170q0 50 16 94.5t37 75t58.5 62t64.5 49.5t70 43q75 41 114 75.5t39 77.5q0 53 -65 53q-31 0 -47.5 -13t-16.5 -30v-41h-235v121 q0 63 53 110t120.5 67t131.5 20q81 0 151.5 -29t119 -95t48.5 -159q0 -40 -10 -77t-23.5 -64t-40 -55t-45.5 -44.5t-54 -38.5t-52 -31t-53 -28q-113 -59 -113 -82q0 -10 27 -10h156q12 0 12 12v64h235v-188q0 -57 -26 -83t-82 -26h-477q-46 0 -68.5 11.5t-33.5 47.5t-11 111 z" />
<glyph unicode="&#xbe;" horiz-adv-x="2017" d="M111 741l174 156q3 -5 9.5 -13.5t26 -30t40 -38t50 -30t58.5 -13.5q42 0 67 20.5t25 49.5t-24 46t-72 17h-72l-33 139l111 166q6 10 15 20.5t14 15.5l6 5v4q-28 -4 -55 -4h-54q-14 0 -14 -16v-43h-236v172q0 55 21 77.5t78 22.5h545v-176l-146 -190q50 -15 86.5 -46.5 t55 -70t26.5 -74t8 -69.5q0 -94 -51 -165.5t-129 -106t-168 -34.5q-62 0 -122.5 21.5t-102 52t-74 61.5t-48.5 53zM655 0l535 1464h260l-535 -1464h-260zM1167 207v145l308 566h325v-488h129v-223h-129v-207h-260v207h-373zM1415 428q21 2 35 2h94v191l2 59h-4 q-10 -32 -24 -59l-76 -150q-5 -10 -12 -20t-11 -15l-4 -4v-4z" />
<glyph unicode="&#xbf;" horiz-adv-x="1046" d="M72 -29q0 68 19.5 127t50 101t68 79t75 67.5t68 59.5t50 63t19.5 71v63h340v-92q0 -65 -24 -121t-59.5 -93t-77.5 -74t-77.5 -66t-59.5 -66.5t-24 -77.5q0 -52 43 -86.5t103 -34.5q44 0 92.5 22.5t75.5 44.5l26 22l197 -240q-6 -7 -18 -18.5t-53.5 -40.5t-87.5 -51.5 t-119 -41t-150 -18.5q-70 0 -137.5 16t-129 49.5t-108.5 80t-74.5 112.5t-27.5 143zM430 748v307h324v-307h-324z" />
<glyph unicode="&#xc0;" horiz-adv-x="1409" d="M20 0v307h39q24 0 35.5 9t20.5 36l399 1112h381l399 -1112q9 -27 20.5 -36t35.5 -9h39v-307h-236q-76 0 -113 26t-59 93l-63 188h-426l-64 -188q-22 -67 -59 -93t-113 -26h-236zM334 1866h321l166 -307h-246zM569 604h271l-74 244q-13 41 -27.5 101.5t-22.5 100.5l-9 40 h-5q-30 -150 -59 -242z" />
<glyph unicode="&#xc1;" horiz-adv-x="1409" d="M20 0v307h39q24 0 35.5 9t20.5 36l399 1112h381l399 -1112q9 -27 20.5 -36t35.5 -9h39v-307h-236q-76 0 -113 26t-59 93l-63 188h-426l-64 -188q-22 -67 -59 -93t-113 -26h-236zM569 604h271l-74 244q-13 41 -27.5 101.5t-22.5 100.5l-9 40h-5q-30 -150 -59 -242z M575 1559l166 307h322l-242 -307h-246z" />
<glyph unicode="&#xc2;" horiz-adv-x="1409" d="M20 0v307h39q24 0 35.5 9t20.5 36l399 1112h381l399 -1112q9 -27 20.5 -36t35.5 -9h39v-307h-236q-76 0 -113 26t-59 93l-63 188h-426l-64 -188q-22 -67 -59 -93t-113 -26h-236zM360 1559l201 307h287l203 -307h-248l-96 167h-5l-96 -167h-246zM569 604h271l-74 244 q-13 41 -27.5 101.5t-22.5 100.5l-9 40h-5q-30 -150 -59 -242z" />
<glyph unicode="&#xc3;" horiz-adv-x="1409" d="M20 0v307h39q24 0 35.5 9t20.5 36l399 1112h381l399 -1112q9 -27 20.5 -36t35.5 -9h39v-307h-236q-76 0 -113 26t-59 93l-63 188h-426l-64 -188q-22 -67 -59 -93t-113 -26h-236zM293 1559q0 313 268 313q40 0 74.5 -12.5t58 -31t45 -36.5t44 -30.5t44.5 -12.5q38 0 61 30 t23 87h207q0 -314 -268 -314q-40 0 -74.5 12.5t-58 31t-45 36.5t-44 30.5t-44.5 12.5q-38 0 -61 -29.5t-23 -86.5h-207zM569 604h271l-74 244q-13 41 -27.5 101.5t-22.5 100.5l-9 40h-5q-30 -150 -59 -242z" />
<glyph unicode="&#xc4;" horiz-adv-x="1409" d="M20 0v307h39q24 0 35.5 9t20.5 36l399 1112h381l399 -1112q9 -27 20.5 -36t35.5 -9h39v-307h-236q-76 0 -113 26t-59 93l-63 188h-426l-64 -188q-22 -67 -59 -93t-113 -26h-236zM383 1579v287h229v-287h-229zM569 604h271l-74 244q-13 41 -27.5 101.5t-22.5 100.5l-9 40 h-5q-30 -150 -59 -242zM799 1579v287h229v-287h-229z" />
<glyph unicode="&#xc5;" horiz-adv-x="1409" d="M20 0v307h39q24 0 35.5 9t20.5 36l399 1112h381l399 -1112q9 -27 20.5 -36t35.5 -9h39v-307h-236q-76 0 -113 26t-59 93l-63 188h-426l-64 -188q-22 -67 -59 -93t-113 -26h-236zM498 1704q0 85 62 130.5t145 45.5t145.5 -45.5t62.5 -130.5q0 -57 -32 -98t-77.5 -58.5 t-98.5 -17.5q-83 0 -145 44.5t-62 129.5zM569 604h271l-74 244q-13 41 -27.5 101.5t-22.5 100.5l-9 40h-5q-30 -150 -59 -242zM631 1704q0 -32 21 -52t53 -20q33 0 54 20t21 52q0 33 -21 53.5t-54 20.5q-31 0 -52.5 -20.5t-21.5 -53.5z" />
<glyph unicode="&#xc6;" horiz-adv-x="1935" d="M20 0v307h39q24 0 34.5 9t21.5 36l481 1112h1102q78 0 113.5 -35.5t35.5 -113.5v-283h-327v80q0 45 -45 45h-199v-266h418v-307h-418v-232q0 -45 45 -45h203q45 0 45 45v80h327v-282q0 -78 -35.5 -114t-113.5 -36h-690q-78 0 -114 36t-36 114v434h-325l-174 -465 q-26 -67 -62 -93t-110 -26h-216zM698 891h209v266h-108z" />
<glyph unicode="&#xc7;" horiz-adv-x="1474" d="M49 748q0 207 98 377t271.5 267t388.5 97q40 0 86 -4.5t101 -15.5t107 -28t101 -44.5t85.5 -61.5t58.5 -82.5t22 -105.5v-193h-328v80q0 57 -70.5 87t-154.5 30q-167 0 -276 -105.5t-109 -297.5q0 -180 113 -307.5t274 -127.5q73 0 143.5 19t119 46.5t86.5 54.5t56 46 l19 19l186 -260q-8 -10 -24 -26.5t-70.5 -59.5t-116 -76.5t-160.5 -63.5t-204 -35l-12 -51q67 -7 110 -47t43 -117q0 -101 -69 -146.5t-170 -45.5q-35 0 -71.5 4.5t-55.5 9.5l-19 4v179q47 -21 92 -21q78 0 78 47q0 43 -84 43l-53 -4l47 152q-193 25 -339 130.5t-223 269.5 t-77 364z" />
<glyph unicode="&#xc8;" horiz-adv-x="1216" d="M57 1157v307h922q78 0 113.5 -35.5t35.5 -113.5v-283h-327v80q0 45 -45 45h-199v-266h418v-307h-418v-232q0 -45 45 -45h203q45 0 45 45v80h328v-282q0 -78 -36 -114t-114 -36h-688q-78 0 -114 36t-36 114v1007h-133zM242 1866h321l166 -307h-246z" />
<glyph unicode="&#xc9;" horiz-adv-x="1216" d="M57 1157v307h922q78 0 113.5 -35.5t35.5 -113.5v-283h-327v80q0 45 -45 45h-199v-266h418v-307h-418v-232q0 -45 45 -45h203q45 0 45 45v80h328v-282q0 -78 -36 -114t-114 -36h-688q-78 0 -114 36t-36 114v1007h-133zM483 1559l166 307h322l-242 -307h-246z" />
<glyph unicode="&#xca;" horiz-adv-x="1216" d="M57 1157v307h922q78 0 113.5 -35.5t35.5 -113.5v-283h-327v80q0 45 -45 45h-199v-266h418v-307h-418v-232q0 -45 45 -45h203q45 0 45 45v80h328v-282q0 -78 -36 -114t-114 -36h-688q-78 0 -114 36t-36 114v1007h-133zM268 1559l201 307h287l202 -307h-247l-97 167h-4 l-96 -167h-246z" />
<glyph unicode="&#xcb;" horiz-adv-x="1216" d="M57 1157v307h922q78 0 113.5 -35.5t35.5 -113.5v-283h-327v80q0 45 -45 45h-199v-266h418v-307h-418v-232q0 -45 45 -45h203q45 0 45 45v80h328v-282q0 -78 -36 -114t-114 -36h-688q-78 0 -114 36t-36 114v1007h-133zM291 1579v287h229v-287h-229zM707 1579v287h229v-287 h-229z" />
<glyph unicode="&#xcc;" horiz-adv-x="780" d="M18 1866h322l166 -307h-246zM63 0v307h154v850h-154v307h654v-307h-154v-850h154v-307h-654z" />
<glyph unicode="&#xcd;" horiz-adv-x="780" d="M63 0v307h154v850h-154v307h654v-307h-154v-850h154v-307h-654zM260 1559l166 307h322l-242 -307h-246z" />
<glyph unicode="&#xce;" horiz-adv-x="780" d="M45 1559l201 307h286l203 -307h-248l-96 167h-4l-96 -167h-246zM63 0v307h154v850h-154v307h654v-307h-154v-850h154v-307h-654z" />
<glyph unicode="&#xcf;" horiz-adv-x="780" d="M63 0v307h154v850h-154v307h654v-307h-154v-850h154v-307h-654zM68 1579v287h229v-287h-229zM483 1579v287h230v-287h-230z" />
<glyph unicode="&#xd0;" horiz-adv-x="1464" d="M57 1157v307h602q349 0 552.5 -193t203.5 -536t-204 -539t-552 -196h-319q-78 0 -114 36t-36 114v432h-96v286h96v289h-133zM557 352q0 -45 45 -45h43q184 0 286.5 110t102.5 318q0 205 -104 313.5t-285 108.5h-88v-289h184v-286h-184v-230z" />
<glyph unicode="&#xd1;" horiz-adv-x="1593" d="M57 0v307h88q45 0 45 45v1112h330l406 -628q27 -42 58 -97t48 -89l17 -34h4q-17 128 -17 220v479q0 78 36 113.5t114 35.5h350v-307h-88q-45 0 -45 -45v-1112h-328l-407 627q-27 41 -58 95.5t-48 89.5l-17 34h-4q16 -127 16 -219v-477q0 -78 -35.5 -114t-113.5 -36h-351z M399 1559q0 313 269 313q40 0 74.5 -12.5t58 -31t45 -36.5t44 -30.5t44.5 -12.5q38 0 61 30t23 87h207q0 -314 -269 -314q-40 0 -74.5 12.5t-58 31t-45 36.5t-44 30.5t-44.5 12.5q-38 0 -61 -29.5t-23 -86.5h-207z" />
<glyph unicode="&#xd2;" horiz-adv-x="1630" d="M49 741q0 155 58 293.5t158.5 238.5t243.5 158t306 58t306 -58t243.5 -158t158.5 -238.5t58 -293.5q0 -213 -98.5 -388t-274.5 -276.5t-393 -101.5t-393 101.5t-274.5 276.5t-98.5 388zM430 741q0 -182 112 -305t273 -123t273 123t112 305q0 174 -112 292t-273 118 t-273 -118t-112 -292zM440 1866h322l166 -307h-246z" />
<glyph unicode="&#xd3;" horiz-adv-x="1630" d="M49 741q0 155 58 293.5t158.5 238.5t243.5 158t306 58t306 -58t243.5 -158t158.5 -238.5t58 -293.5q0 -213 -98.5 -388t-274.5 -276.5t-393 -101.5t-393 101.5t-274.5 276.5t-98.5 388zM430 741q0 -182 112 -305t273 -123t273 123t112 305q0 174 -112 292t-273 118 t-273 -118t-112 -292zM682 1559l166 307h321l-241 -307h-246z" />
<glyph unicode="&#xd4;" horiz-adv-x="1630" d="M49 741q0 155 58 293.5t158.5 238.5t243.5 158t306 58t306 -58t243.5 -158t158.5 -238.5t58 -293.5q0 -213 -98.5 -388t-274.5 -276.5t-393 -101.5t-393 101.5t-274.5 276.5t-98.5 388zM430 741q0 -182 112 -305t273 -123t273 123t112 305q0 174 -112 292t-273 118 t-273 -118t-112 -292zM467 1559l201 307h286l203 -307h-248l-96 167h-4l-96 -167h-246z" />
<glyph unicode="&#xd5;" horiz-adv-x="1630" d="M49 741q0 155 58 293.5t158.5 238.5t243.5 158t306 58t306 -58t243.5 -158t158.5 -238.5t58 -293.5q0 -213 -98.5 -388t-274.5 -276.5t-393 -101.5t-393 101.5t-274.5 276.5t-98.5 388zM399 1559q0 313 269 313q40 0 74.5 -12.5t58 -31t45 -36.5t44 -30.5t44.5 -12.5 q38 0 61 30t23 87h207q0 -314 -269 -314q-40 0 -74.5 12.5t-58 31t-45 36.5t-44 30.5t-44.5 12.5q-38 0 -61 -29.5t-23 -86.5h-207zM430 741q0 -182 112 -305t273 -123t273 123t112 305q0 174 -112 292t-273 118t-273 -118t-112 -292z" />
<glyph unicode="&#xd6;" horiz-adv-x="1630" d="M49 741q0 155 58 293.5t158.5 238.5t243.5 158t306 58t306 -58t243.5 -158t158.5 -238.5t58 -293.5q0 -213 -98.5 -388t-274.5 -276.5t-393 -101.5t-393 101.5t-274.5 276.5t-98.5 388zM430 741q0 -182 112 -305t273 -123t273 123t112 305q0 174 -112 292t-273 118 t-273 -118t-112 -292zM489 1579v287h230v-287h-230zM905 1579v287h230v-287h-230z" />
<glyph unicode="&#xd7;" d="M90 188l373 400l-373 401l189 189l366 -394l369 394l188 -189l-375 -401l375 -400l-188 -188l-369 393l-366 -393z" />
<glyph unicode="&#xd8;" horiz-adv-x="1630" d="M49 741q0 155 58 293.5t158.5 238.5t243.5 158t306 58q207 0 377 -92l90 125l143 -97l-90 -125q117 -104 181.5 -249t64.5 -310q0 -213 -98.5 -388t-274.5 -276.5t-393 -101.5q-199 0 -373 91l-88 -123l-143 98l88 123q-119 106 -184.5 255t-65.5 322zM430 741 q0 -158 88 -276l467 645q-77 41 -170 41q-161 0 -273 -118t-112 -292zM649 352q74 -39 166 -39q161 0 273 123t112 305q0 145 -84 256z" />
<glyph unicode="&#xd9;" horiz-adv-x="1552" d="M41 1157v307h350q78 0 114 -35.5t36 -113.5v-766q0 -113 64 -174.5t171 -61.5t171.5 61.5t64.5 174.5v766q0 78 35.5 113.5t113.5 35.5h350v-307h-88q-45 0 -45 -45v-573q0 -249 -165 -406.5t-435 -157.5q-273 0 -438.5 157t-165.5 407v573q0 45 -45 45h-88zM406 1866 h321l166 -307h-246z" />
<glyph unicode="&#xda;" horiz-adv-x="1552" d="M41 1157v307h350q78 0 114 -35.5t36 -113.5v-766q0 -113 64 -174.5t171 -61.5t171.5 61.5t64.5 174.5v766q0 78 35.5 113.5t113.5 35.5h350v-307h-88q-45 0 -45 -45v-573q0 -249 -165 -406.5t-435 -157.5q-273 0 -438.5 157t-165.5 407v573q0 45 -45 45h-88zM647 1559 l166 307h322l-242 -307h-246z" />
<glyph unicode="&#xdb;" horiz-adv-x="1552" d="M41 1157v307h350q78 0 114 -35.5t36 -113.5v-766q0 -113 64 -174.5t171 -61.5t171.5 61.5t64.5 174.5v766q0 78 35.5 113.5t113.5 35.5h350v-307h-88q-45 0 -45 -45v-573q0 -249 -165 -406.5t-435 -157.5q-273 0 -438.5 157t-165.5 407v573q0 45 -45 45h-88zM432 1559 l201 307h287l202 -307h-248l-96 167h-4l-96 -167h-246z" />
<glyph unicode="&#xdc;" horiz-adv-x="1552" d="M41 1157v307h350q78 0 114 -35.5t36 -113.5v-766q0 -113 64 -174.5t171 -61.5t171.5 61.5t64.5 174.5v766q0 78 35.5 113.5t113.5 35.5h350v-307h-88q-45 0 -45 -45v-573q0 -249 -165 -406.5t-435 -157.5q-273 0 -438.5 157t-165.5 407v573q0 45 -45 45h-88zM455 1579 v287h229v-287h-229zM870 1579v287h230v-287h-230z" />
<glyph unicode="&#xdd;" horiz-adv-x="1296" d="M20 1157v307h201q73 0 113.5 -19t75.5 -79l149 -252q24 -42 46 -83t32 -61l10 -20h4q33 70 88 164l148 252q35 60 75.5 79t112.5 19h201v-307h-59q-33 0 -43 -6.5t-31 -38.5l-312 -471v-641h-366v641l-311 471q-21 32 -31 38.5t-43 6.5h-60zM520 1559l166 307h322 l-242 -307h-246z" />
<glyph unicode="&#xde;" d="M57 1157v307h351q78 0 113.5 -35.5t35.5 -113.5v-68h211q213 0 345 -141t132 -363q0 -223 -132.5 -365t-344.5 -142h-211v-236h-367v1112q0 45 -45 45h-88zM557 543h137q86 0 131 54.5t45 145.5q0 90 -43.5 143.5t-126.5 53.5h-143v-397z" />
<glyph unicode="&#xdf;" d="M35 0v297h61q45 0 45 45v737q0 98 44 177.5t118 129.5t167 76.5t194 26.5q93 0 178.5 -28.5t151 -79t104.5 -125.5t39 -162q0 -46 -15 -86.5t-37 -69t-44 -55t-37 -56.5t-15 -61q0 -27 28.5 -57.5t68.5 -63t80.5 -72.5t69 -102.5t28.5 -136.5q0 -87 -32.5 -157 t-88.5 -113t-126.5 -66t-150.5 -23q-88 0 -160 15t-100 30l-28 15l63 274q80 -39 166 -39q102 0 102 86q0 26 -28.5 55.5t-69 61.5t-81 70t-69 94t-28.5 121q0 51 23 100t50.5 81t50.5 71.5t23 74.5q0 48 -34 78.5t-93 30.5q-157 0 -157 -139v-905q0 -78 -36 -114t-114 -36 h-311z" />
<glyph unicode="&#xe0;" horiz-adv-x="1196" d="M57 315q0 64 26 117.5t66.5 89t97.5 62.5t112.5 41.5t117.5 24t106.5 12t86.5 2.5h14v12q0 73 -33.5 105t-101.5 32q-92 0 -92 -51v-47h-328v116q0 49 17.5 88t44 64.5t66 44t75.5 28t81 15.5t74 7t62 1q134 0 231.5 -32.5t152.5 -92.5t80 -135t25 -170v-307 q0 -45 45 -45h78v-297h-307q-70 0 -104.5 34.5t-34.5 76.5v18h-4q-3 -6 -9.5 -16.5t-31 -37t-55 -47t-84 -37t-115.5 -16.5q-152 0 -255.5 93.5t-103.5 246.5zM203 1464h321l166 -307h-246zM414 334q0 -39 25 -63.5t75 -24.5q67 0 120.5 59.5t53.5 126.5v17h-33 q-61 0 -113 -10.5t-90 -37.5t-38 -67z" />
<glyph unicode="&#xe1;" horiz-adv-x="1196" d="M57 315q0 64 26 117.5t66.5 89t97.5 62.5t112.5 41.5t117.5 24t106.5 12t86.5 2.5h14v12q0 73 -33.5 105t-101.5 32q-92 0 -92 -51v-47h-328v116q0 49 17.5 88t44 64.5t66 44t75.5 28t81 15.5t74 7t62 1q134 0 231.5 -32.5t152.5 -92.5t80 -135t25 -170v-307 q0 -45 45 -45h78v-297h-307q-70 0 -104.5 34.5t-34.5 76.5v18h-4q-3 -6 -9.5 -16.5t-31 -37t-55 -47t-84 -37t-115.5 -16.5q-152 0 -255.5 93.5t-103.5 246.5zM414 334q0 -39 25 -63.5t75 -24.5q67 0 120.5 59.5t53.5 126.5v17h-33q-61 0 -113 -10.5t-90 -37.5t-38 -67z M444 1157l166 307h322l-242 -307h-246z" />
<glyph unicode="&#xe2;" horiz-adv-x="1196" d="M57 315q0 64 26 117.5t66.5 89t97.5 62.5t112.5 41.5t117.5 24t106.5 12t86.5 2.5h14v12q0 73 -33.5 105t-101.5 32q-92 0 -92 -51v-47h-328v116q0 49 17.5 88t44 64.5t66 44t75.5 28t81 15.5t74 7t62 1q134 0 231.5 -32.5t152.5 -92.5t80 -135t25 -170v-307 q0 -45 45 -45h78v-297h-307q-70 0 -104.5 34.5t-34.5 76.5v18h-4q-3 -6 -9.5 -16.5t-31 -37t-55 -47t-84 -37t-115.5 -16.5q-152 0 -255.5 93.5t-103.5 246.5zM229 1157l201 307h287l203 -307h-248l-97 168h-4l-96 -168h-246zM414 334q0 -39 25 -63.5t75 -24.5 q67 0 120.5 59.5t53.5 126.5v17h-33q-61 0 -113 -10.5t-90 -37.5t-38 -67z" />
<glyph unicode="&#xe3;" horiz-adv-x="1196" d="M57 315q0 64 26 117.5t66.5 89t97.5 62.5t112.5 41.5t117.5 24t106.5 12t86.5 2.5h14v12q0 73 -33.5 105t-101.5 32q-92 0 -92 -51v-47h-328v116q0 49 17.5 88t44 64.5t66 44t75.5 28t81 15.5t74 7t62 1q134 0 231.5 -32.5t152.5 -92.5t80 -135t25 -170v-307 q0 -45 45 -45h78v-297h-307q-70 0 -104.5 34.5t-34.5 76.5v18h-4q-3 -6 -9.5 -16.5t-31 -37t-55 -47t-84 -37t-115.5 -16.5q-152 0 -255.5 93.5t-103.5 246.5zM162 1157q0 313 268 313q48 0 90 -19t66 -42t53.5 -42t56.5 -19q38 0 61 29.5t23 86.5h207q0 -313 -268 -313 q-40 0 -74.5 12.5t-58 30.5t-45 36.5t-44 31t-44.5 12.5q-38 0 -61 -30t-23 -87h-207zM414 334q0 -39 25 -63.5t75 -24.5q67 0 120.5 59.5t53.5 126.5v17h-33q-61 0 -113 -10.5t-90 -37.5t-38 -67z" />
<glyph unicode="&#xe4;" horiz-adv-x="1196" d="M57 315q0 64 26 117.5t66.5 89t97.5 62.5t112.5 41.5t117.5 24t106.5 12t86.5 2.5h14v12q0 73 -33.5 105t-101.5 32q-92 0 -92 -51v-47h-328v116q0 49 17.5 88t44 64.5t66 44t75.5 28t81 15.5t74 7t62 1q134 0 231.5 -32.5t152.5 -92.5t80 -135t25 -170v-307 q0 -45 45 -45h78v-297h-307q-70 0 -104.5 34.5t-34.5 76.5v18h-4q-3 -6 -9.5 -16.5t-31 -37t-55 -47t-84 -37t-115.5 -16.5q-152 0 -255.5 93.5t-103.5 246.5zM252 1178v286h229v-286h-229zM414 334q0 -39 25 -63.5t75 -24.5q67 0 120.5 59.5t53.5 126.5v17h-33 q-61 0 -113 -10.5t-90 -37.5t-38 -67zM668 1178v286h229v-286h-229z" />
<glyph unicode="&#xe5;" horiz-adv-x="1196" d="M57 315q0 64 26 117.5t66.5 89t97.5 62.5t112.5 41.5t117.5 24t106.5 12t86.5 2.5h14v12q0 73 -33.5 105t-101.5 32q-92 0 -92 -51v-47h-328v116q0 49 17.5 88t44 64.5t66 44t75.5 28t81 15.5t74 7t62 1q134 0 231.5 -32.5t152.5 -92.5t80 -135t25 -170v-307 q0 -45 45 -45h78v-297h-307q-70 0 -104.5 34.5t-34.5 76.5v18h-4q-3 -6 -9.5 -16.5t-31 -37t-55 -47t-84 -37t-115.5 -16.5q-152 0 -255.5 93.5t-103.5 246.5zM367 1303q0 85 61.5 130.5t144.5 45.5t146 -45.5t63 -130.5q0 -57 -32 -98t-78 -59t-99 -18q-83 0 -144.5 45 t-61.5 130zM414 334q0 -39 25 -63.5t75 -24.5q67 0 120.5 59.5t53.5 126.5v17h-33q-61 0 -113 -10.5t-90 -37.5t-38 -67zM500 1303q0 -32 20.5 -52t52.5 -20q33 0 54.5 20t21.5 52q0 33 -21.5 53t-54.5 20q-31 0 -52 -20t-21 -53z" />
<glyph unicode="&#xe6;" horiz-adv-x="1765" d="M59 315q0 64 26 117.5t67 89.5t97.5 63.5t113 42.5t119 24.5t108.5 12.5t88 3h8v16q0 129 -137 129q-92 0 -92 -51v-47h-328v116q0 61 27 106.5t68.5 72t100 42.5t111.5 21.5t113 5.5q225 0 342 -104h4q126 104 315 104q198 0 324 -113.5t156 -299.5q8 -47 8 -107 l-8 -106h-666q19 -94 86.5 -138.5t159.5 -44.5q68 0 138 28t106 56l36 27l142 -238q-7 -7 -20 -18t-57.5 -40t-93.5 -51.5t-125 -40.5t-155 -18q-273 0 -424 185h-4q-13 -23 -39.5 -49.5t-73 -59t-121 -53.5t-161.5 -21q-152 0 -255.5 93t-103.5 245zM416 334 q0 -39 25.5 -63.5t78.5 -24.5q69 0 120.5 60t51.5 128v19h-35q-96 0 -168.5 -30.5t-72.5 -88.5zM1034 668h301q0 54 -35 99.5t-90 45.5q-133 0 -176 -145z" />
<glyph unicode="&#xe7;" horiz-adv-x="1118" d="M51 528q0 85 23.5 164.5t72 150t118 123t168 83t214.5 30.5q47 0 97 -7.5t103 -25.5t94.5 -45t68 -71.5t26.5 -98.5v-145h-307v55q0 45 -82 45q-110 0 -174.5 -72.5t-64.5 -181.5q0 -65 23 -115t61.5 -78.5t84.5 -43t97 -14.5q68 0 140.5 34.5t111.5 68.5l39 34l141 -238 q-7 -8 -19.5 -21.5t-56 -48t-92.5 -61.5t-126.5 -49.5t-158.5 -24.5l-12 -49q68 -7 111 -47t43 -117q0 -101 -69.5 -146.5t-170.5 -45.5q-35 0 -71 4.5t-55 9.5l-19 4v179q47 -21 92 -21q78 0 78 47q0 43 -84 43l-54 -4l50 160q-139 28 -240 108t-151 190t-50 238z" />
<glyph unicode="&#xe8;" horiz-adv-x="1155" d="M51 528q0 155 65.5 279.5t191.5 198t292 73.5q152 0 263.5 -66.5t167.5 -181t56 -262.5l-8 -106h-665q19 -95 87 -144t158 -49q68 0 138 28t107 56l36 27l141 -238q-7 -7 -20 -18t-57.5 -40t-93 -51.5t-124.5 -40.5t-155 -18q-137 0 -249 46.5t-183 124.5t-109.5 176.5 t-38.5 205.5zM221 1464h322l166 -307h-246zM424 678h301q0 52 -36 93.5t-89 41.5q-136 0 -176 -135z" />
<glyph unicode="&#xe9;" horiz-adv-x="1155" d="M51 528q0 155 65.5 279.5t191.5 198t292 73.5q152 0 263.5 -66.5t167.5 -181t56 -262.5l-8 -106h-665q19 -95 87 -144t158 -49q68 0 138 28t107 56l36 27l141 -238q-7 -7 -20 -18t-57.5 -40t-93 -51.5t-124.5 -40.5t-155 -18q-137 0 -249 46.5t-183 124.5t-109.5 176.5 t-38.5 205.5zM424 678h301q0 52 -36 93.5t-89 41.5q-136 0 -176 -135zM463 1157l166 307h321l-241 -307h-246z" />
<glyph unicode="&#xea;" horiz-adv-x="1155" d="M51 528q0 155 65.5 279.5t191.5 198t292 73.5q152 0 263.5 -66.5t167.5 -181t56 -262.5l-8 -106h-665q19 -95 87 -144t158 -49q68 0 138 28t107 56l36 27l141 -238q-7 -7 -20 -18t-57.5 -40t-93 -51.5t-124.5 -40.5t-155 -18q-137 0 -249 46.5t-183 124.5t-109.5 176.5 t-38.5 205.5zM248 1157l201 307h286l203 -307h-248l-96 168h-4l-96 -168h-246zM424 678h301q0 52 -36 93.5t-89 41.5q-136 0 -176 -135z" />
<glyph unicode="&#xeb;" horiz-adv-x="1155" d="M51 528q0 155 65.5 279.5t191.5 198t292 73.5q152 0 263.5 -66.5t167.5 -181t56 -262.5l-8 -106h-665q19 -95 87 -144t158 -49q68 0 138 28t107 56l36 27l141 -238q-7 -7 -20 -18t-57.5 -40t-93 -51.5t-124.5 -40.5t-155 -18q-137 0 -249 46.5t-183 124.5t-109.5 176.5 t-38.5 205.5zM270 1178v286h230v-286h-230zM424 678h301q0 52 -36 93.5t-89 41.5q-136 0 -176 -135zM686 1178v286h229v-286h-229z" />
<glyph unicode="&#xec;" horiz-adv-x="698" d="M-39 1464h322l166 -307h-246zM49 758v297h328q78 0 113.5 -36t35.5 -114v-563q0 -45 45 -45h78v-297h-327q-78 0 -114 36t-36 114v563q0 45 -45 45h-78z" />
<glyph unicode="&#xed;" horiz-adv-x="698" d="M49 758v297h328q78 0 113.5 -36t35.5 -114v-563q0 -45 45 -45h78v-297h-327q-78 0 -114 36t-36 114v563q0 45 -45 45h-78zM203 1157l166 307h321l-241 -307h-246z" />
<glyph unicode="&#xee;" horiz-adv-x="698" d="M-12 1157l200 307h287l203 -307h-248l-96 168h-4l-97 -168h-245zM49 758v297h328q78 0 113.5 -36t35.5 -114v-563q0 -45 45 -45h78v-297h-327q-78 0 -114 36t-36 114v563q0 45 -45 45h-78z" />
<glyph unicode="&#xef;" horiz-adv-x="698" d="M31 1178v286h229v-286h-229zM49 758v297h328q78 0 113.5 -36t35.5 -114v-563q0 -45 45 -45h78v-297h-327q-78 0 -114 36t-36 114v563q0 45 -45 45h-78zM395 1178v286h230v-286h-230z" />
<glyph unicode="&#xf0;" horiz-adv-x="1230" d="M80 494q0 121 55.5 223.5t165.5 167.5t252 65q36 0 71 -4.5t52 -9.5l18 -4h4q-52 77 -143 129l-393 -162v195l188 80q-105 45 -194 61l98 276q271 -57 475 -182l330 137v-194l-166 -70q260 -250 260 -622q0 -89 -17.5 -172t-59 -163t-103.5 -139t-158 -95t-215 -36 q-121 0 -221 43.5t-164.5 116.5t-99.5 165.5t-35 193.5zM436 483q0 -91 41.5 -152t128.5 -61q51 0 89 21t59.5 56.5t32 77t10.5 87.5q0 75 -45 121.5t-125 46.5q-92 0 -141.5 -57t-49.5 -140z" />
<glyph unicode="&#xf1;" horiz-adv-x="1374" d="M39 758v297h315q71 0 109.5 -32t38.5 -87v-14l-2 -25h4q109 182 334 182q83 0 149.5 -20.5t119.5 -65t81.5 -123t28.5 -186.5v-342q0 -45 45 -45h77v-297h-327q-78 0 -114 36t-36 114v468q0 73 -29 106.5t-88 33.5q-156 0 -208 -152q-21 -62 -21 -139v-467h-354v713 q0 45 -45 45h-78zM283 1157q0 313 268 313q48 0 90 -19t66 -42t53.5 -42t56.5 -19q38 0 61 29.5t23 86.5h207q0 -313 -268 -313q-48 0 -90 19t-66.5 42.5t-54 42.5t-56.5 19q-38 0 -61 -30t-23 -87h-206z" />
<glyph unicode="&#xf2;" horiz-adv-x="1294" d="M51 524q0 122 46.5 226.5t126.5 176t189 112t232 40.5q166 0 302 -68.5t216 -196.5t80 -290q0 -161 -80 -287.5t-215 -194t-301 -67.5t-301 67.5t-215 194t-80 287.5zM276 1464h322l166 -307h-246zM408 524q0 -115 69.5 -184.5t169.5 -69.5t170 69.5t70 184.5 q0 117 -70 188.5t-170 71.5t-169.5 -71.5t-69.5 -188.5z" />
<glyph unicode="&#xf3;" horiz-adv-x="1294" d="M51 524q0 122 46.5 226.5t126.5 176t189 112t232 40.5q166 0 302 -68.5t216 -196.5t80 -290q0 -161 -80 -287.5t-215 -194t-301 -67.5t-301 67.5t-215 194t-80 287.5zM408 524q0 -115 69.5 -184.5t169.5 -69.5t170 69.5t70 184.5q0 117 -70 188.5t-170 71.5t-169.5 -71.5 t-69.5 -188.5zM518 1157l166 307h322l-242 -307h-246z" />
<glyph unicode="&#xf4;" horiz-adv-x="1294" d="M51 524q0 122 46.5 226.5t126.5 176t189 112t232 40.5q166 0 302 -68.5t216 -196.5t80 -290q0 -161 -80 -287.5t-215 -194t-301 -67.5t-301 67.5t-215 194t-80 287.5zM303 1157l201 307h287l202 -307h-248l-96 168h-4l-96 -168h-246zM408 524q0 -115 69.5 -184.5 t169.5 -69.5t170 69.5t70 184.5q0 117 -70 188.5t-170 71.5t-169.5 -71.5t-69.5 -188.5z" />
<glyph unicode="&#xf5;" horiz-adv-x="1294" d="M51 524q0 122 46.5 226.5t126.5 176t189 112t232 40.5q166 0 302 -68.5t216 -196.5t80 -290q0 -161 -80 -287.5t-215 -194t-301 -67.5t-301 67.5t-215 194t-80 287.5zM236 1157q0 313 268 313q48 0 90 -19t66 -42t53.5 -42t56.5 -19q38 0 61 29.5t23 86.5h207 q0 -313 -268 -313q-48 0 -90 19t-66.5 42.5t-54 42.5t-56.5 19q-38 0 -61 -30t-23 -87h-206zM408 524q0 -115 69.5 -184.5t169.5 -69.5t170 69.5t70 184.5q0 117 -70 188.5t-170 71.5t-169.5 -71.5t-69.5 -188.5z" />
<glyph unicode="&#xf6;" horiz-adv-x="1294" d="M51 524q0 122 46.5 226.5t126.5 176t189 112t232 40.5q166 0 302 -68.5t216 -196.5t80 -290q0 -161 -80 -287.5t-215 -194t-301 -67.5t-301 67.5t-215 194t-80 287.5zM326 1178v286h229v-286h-229zM408 524q0 -115 69.5 -184.5t169.5 -69.5t170 69.5t70 184.5 q0 117 -70 188.5t-170 71.5t-169.5 -71.5t-69.5 -188.5zM741 1178v286h230v-286h-230z" />
<glyph unicode="&#xf7;" d="M86 455v266h1118v-266h-1118zM496 0v276h299v-276h-299zM496 901v277h299v-277h-299z" />
<glyph unicode="&#xf8;" horiz-adv-x="1294" d="M51 524q0 122 46.5 226.5t126.5 176t189 112t232 40.5q144 0 270 -55l89 121l135 -92l-84 -115q89 -75 138.5 -181t49.5 -233q0 -161 -80 -287.5t-215 -194t-301 -67.5q-134 0 -252 45l-88 -122l-135 94l80 110q-94 74 -147.5 182.5t-53.5 239.5zM408 524q0 -87 41 -149 l282 393q-43 16 -84 16q-100 0 -169.5 -71.5t-69.5 -188.5zM582 279q30 -9 65 -9q100 0 170 69.5t70 184.5q0 72 -33 133z" />
<glyph unicode="&#xf9;" horiz-adv-x="1363" d="M35 758v297h327q78 0 114 -36t36 -114v-469q0 -139 113 -139q109 0 166 82.5t57 208.5v467h354v-713q0 -45 45 -45h78v-297h-313q-71 0 -110.5 32t-39.5 87v14l2 25h-4q-42 -84 -131.5 -133.5t-196.5 -49.5q-82 0 -147.5 20.5t-117.5 65.5t-80.5 123.5t-28.5 186.5v342 q0 45 -45 45h-78zM299 1464h322l165 -307h-245z" />
<glyph unicode="&#xfa;" horiz-adv-x="1363" d="M35 758v297h327q78 0 114 -36t36 -114v-469q0 -139 113 -139q109 0 166 82.5t57 208.5v467h354v-713q0 -45 45 -45h78v-297h-313q-71 0 -110.5 32t-39.5 87v14l2 25h-4q-42 -84 -131.5 -133.5t-196.5 -49.5q-82 0 -147.5 20.5t-117.5 65.5t-80.5 123.5t-28.5 186.5v342 q0 45 -45 45h-78zM541 1157l166 307h321l-242 -307h-245z" />
<glyph unicode="&#xfb;" horiz-adv-x="1363" d="M35 758v297h327q78 0 114 -36t36 -114v-469q0 -139 113 -139q109 0 166 82.5t57 208.5v467h354v-713q0 -45 45 -45h78v-297h-313q-71 0 -110.5 32t-39.5 87v14l2 25h-4q-42 -84 -131.5 -133.5t-196.5 -49.5q-82 0 -147.5 20.5t-117.5 65.5t-80.5 123.5t-28.5 186.5v342 q0 45 -45 45h-78zM326 1157l200 307h287l203 -307h-248l-96 168h-4l-97 -168h-245z" />
<glyph unicode="&#xfc;" horiz-adv-x="1363" d="M35 758v297h327q78 0 114 -36t36 -114v-469q0 -139 113 -139q109 0 166 82.5t57 208.5v467h354v-713q0 -45 45 -45h78v-297h-313q-71 0 -110.5 32t-39.5 87v14l2 25h-4q-42 -84 -131.5 -133.5t-196.5 -49.5q-82 0 -147.5 20.5t-117.5 65.5t-80.5 123.5t-28.5 186.5v342 q0 45 -45 45h-78zM348 1178v286h230v-286h-230zM764 1178v286h229v-286h-229z" />
<glyph unicode="&#xfd;" horiz-adv-x="1157" d="M-8 -317l127 249q7 -8 19.5 -19t50.5 -29.5t75 -18.5q117 0 158 104l12 31l-334 725q-9 20 -17.5 26.5t-27.5 6.5h-39v297h258q92 0 123 -86l156 -426q9 -25 18.5 -66t14.5 -69l6 -29h4q19 107 35 164l117 426q10 40 45.5 63t78.5 23h265v-297h-39q-20 0 -31 -7t-18 -26 l-320 -838q-33 -84 -82.5 -147t-108.5 -99t-121 -53.5t-128 -17.5q-51 0 -100.5 11.5t-83.5 28t-60.5 33.5t-39.5 29zM459 1157l166 307h321l-241 -307h-246z" />
<glyph unicode="&#xfe;" horiz-adv-x="1320" d="M35 1167v297h327q78 0 114 -35.5t36 -113.5v-244l-4 -90h4q98 98 274 98q142 0 253.5 -73t171 -198t59.5 -280t-59.5 -280.5t-171 -199t-253.5 -73.5q-56 0 -104.5 10t-78.5 24.5t-51.5 29.5t-30.5 25l-9 10h-4q4 -37 4 -90v-394h-354v1532q0 45 -45 45h-78zM502 526 q0 -256 213 -256q89 0 143.5 75t54.5 183t-54 182t-144 74q-213 0 -213 -258z" />
<glyph unicode="&#xff;" horiz-adv-x="1157" d="M-8 -317l127 249q7 -8 19.5 -19t50.5 -29.5t75 -18.5q117 0 158 104l12 31l-334 725q-9 20 -17.5 26.5t-27.5 6.5h-39v297h258q92 0 123 -86l156 -426q9 -25 18.5 -66t14.5 -69l6 -29h4q19 107 35 164l117 426q10 40 45.5 63t78.5 23h265v-297h-39q-20 0 -31 -7t-18 -26 l-320 -838q-33 -84 -82.5 -147t-108.5 -99t-121 -53.5t-128 -17.5q-51 0 -100.5 11.5t-83.5 28t-60.5 33.5t-39.5 29zM266 1178v286h230v-286h-230zM682 1178v286h229v-286h-229z" />
<glyph unicode="&#x152;" horiz-adv-x="2009" d="M49 735q0 154 60.5 293t162 238t241 157t292.5 58q86 0 171.5 -8.5t129.5 -8.5h666q78 0 113.5 -35.5t35.5 -113.5v-283h-328v80q0 45 -45 45h-198v-266h417v-307h-417v-277h247q45 0 45 45v80h328v-282q0 -78 -35.5 -114t-113.5 -36h-715q-44 0 -129.5 -8t-171.5 -8 q-204 0 -378 99.5t-276 272.5t-102 379zM430 735q0 -179 106.5 -296t268.5 -117q131 0 178 12v792q-61 17 -178 17q-162 0 -268.5 -115t-106.5 -293z" />
<glyph unicode="&#x153;" horiz-adv-x="2011" d="M51 524q0 122 46.5 226.5t126.5 176t189 112t232 40.5q143 0 239 -42.5t179 -121.5h4q73 80 160.5 122t228.5 42q228 0 358 -142t130 -368l-9 -106h-665q19 -95 87.5 -144t158.5 -49q68 0 138 28t106 56l36 27l141 -238q-7 -7 -20 -18t-57.5 -40t-93 -51.5t-124.5 -40.5 t-155 -18q-104 0 -186 26t-129.5 60.5t-96.5 88.5h-4q-84 -84 -181.5 -129.5t-242.5 -45.5q-166 0 -301 67.5t-215 194t-80 287.5zM408 524q0 -115 69.5 -184.5t169.5 -69.5t170 69.5t70 184.5q0 117 -70 188.5t-170 71.5t-169.5 -71.5t-69.5 -188.5zM1280 678h301 q-5 56 -36.5 95.5t-88.5 39.5q-136 0 -176 -135z" />
<glyph unicode="&#x178;" horiz-adv-x="1296" d="M20 1157v307h201q73 0 113.5 -19t75.5 -79l149 -252q24 -42 46 -83t32 -61l10 -20h4q33 70 88 164l148 252q35 60 75.5 79t112.5 19h201v-307h-59q-33 0 -43 -6.5t-31 -38.5l-312 -471v-641h-366v641l-311 471q-21 32 -31 38.5t-43 6.5h-60zM328 1579v287h229v-287h-229z M743 1579v287h230v-287h-230z" />
<glyph unicode="&#x2c6;" horiz-adv-x="1075" d="M195 1559l200 307h287l203 -307h-248l-96 167h-4l-97 -167h-245z" />
<glyph unicode="&#x2dc;" horiz-adv-x="1212" d="M207 1559q0 313 268 313q40 0 74.5 -12.5t58 -31t45 -36.5t44 -30.5t44.5 -12.5q38 0 61 30t23 87h207q0 -314 -268 -314q-40 0 -74.5 12.5t-58 31t-45 36.5t-44 30.5t-44.5 12.5q-38 0 -61 -29.5t-23 -86.5h-207z" />
<glyph unicode="&#x2000;" horiz-adv-x="940" />
<glyph unicode="&#x2001;" horiz-adv-x="1880" />
<glyph unicode="&#x2002;" horiz-adv-x="940" />
<glyph unicode="&#x2003;" horiz-adv-x="1880" />
<glyph unicode="&#x2004;" horiz-adv-x="626" />
<glyph unicode="&#x2005;" horiz-adv-x="470" />
<glyph unicode="&#x2006;" horiz-adv-x="313" />
<glyph unicode="&#x2007;" horiz-adv-x="313" />
<glyph unicode="&#x2008;" horiz-adv-x="235" />
<glyph unicode="&#x2009;" horiz-adv-x="376" />
<glyph unicode="&#x200a;" horiz-adv-x="104" />
<glyph unicode="&#x2010;" horiz-adv-x="880" d="M119 434v307h643v-307h-643z" />
<glyph unicode="&#x2011;" horiz-adv-x="880" d="M119 434v307h643v-307h-643z" />
<glyph unicode="&#x2012;" horiz-adv-x="880" d="M119 434v307h643v-307h-643z" />
<glyph unicode="&#x2013;" horiz-adv-x="1392" d="M86 455v266h1221v-266h-1221z" />
<glyph unicode="&#x2014;" horiz-adv-x="1802" d="M86 455v266h1630v-266h-1630z" />
<glyph unicode="&#x2018;" horiz-adv-x="555" d="M72 973l182 522h229l-110 -522h-301z" />
<glyph unicode="&#x2019;" horiz-adv-x="555" d="M72 973l110 522h301l-182 -522h-229z" />
<glyph unicode="&#x201a;" horiz-adv-x="555" d="M72 -182l110 522h301l-182 -522h-229z" />
<glyph unicode="&#x201c;" horiz-adv-x="948" d="M72 973l182 522h229l-110 -522h-301zM465 973l182 522h230l-111 -522h-301z" />
<glyph unicode="&#x201d;" horiz-adv-x="948" d="M72 973l110 522h301l-182 -522h-229zM465 973l110 522h302l-183 -522h-229z" />
<glyph unicode="&#x201e;" horiz-adv-x="948" d="M72 -182l110 522h301l-182 -522h-229zM465 -182l110 522h302l-183 -522h-229z" />
<glyph unicode="&#x2022;" horiz-adv-x="1007" d="M123 596q0 158 111.5 269.5t269.5 111.5t269.5 -111.5t111.5 -269.5t-111.5 -269.5t-269.5 -111.5t-269.5 111.5t-111.5 269.5z" />
<glyph unicode="&#x2026;" horiz-adv-x="2318" d="M334 0v336h323v-336h-323zM997 0v336h324v-336h-324zM1661 0v336h324v-336h-324z" />
<glyph unicode="&#x202f;" horiz-adv-x="376" />
<glyph unicode="&#x2039;" horiz-adv-x="882" d="M106 578l336 421h324l-336 -421l336 -420h-324z" />
<glyph unicode="&#x203a;" horiz-adv-x="882" d="M106 158l336 420l-336 421h324l336 -421l-336 -420h-324z" />
<glyph unicode="&#x205f;" horiz-adv-x="470" />
<glyph unicode="&#x20ac;" d="M76 485v197h135q-4 33 -4 53l2 45h-133v197h168q71 228 265 370t445 142q49 0 103 -7.5t83 -14.5l29 -7l-88 -323q-67 20 -137 20q-106 0 -187.5 -47t-127.5 -133h422l-41 -197h-428q-2 -27 -2 -39l6 -59h403l-41 -197h-297q49 -81 131.5 -126.5t178.5 -45.5q48 0 99 8.5 t78 17.5l27 9l62 -328q-13 -5 -37 -12.5t-95.5 -20t-140.5 -12.5q-259 0 -446.5 139t-259.5 371h-172z" />
<glyph unicode="&#x2122;" horiz-adv-x="2052" d="M55 1169v205q0 53 20.5 71.5t78.5 18.5h641q57 0 76.5 -18.5t19.5 -71.5v-205h-209v60q0 12 -12 12h-66v-692h-258v692h-61q-13 0 -13 -12v-60h-217zM889 549v223h41q16 0 16 14l55 678h242l150 -358l26 -90h4q15 59 27 90l149 358h242l55 -678q0 -14 17 -14h43v-223 h-205q-59 0 -81 17t-25 73l-17 266l2 66h-4l-104 -256h-201l-104 256h-5l2 -66l-16 -266q-3 -56 -25 -73t-81 -17h-203z" />
<glyph unicode="&#x25fc;" horiz-adv-x="1054" d="M0 0v1055h1055v-1055h-1055z" />
</font>
</defs>
</svg>
